Ссылка на приватное зеркало всего за 1$. Внимание количество ограничено!!!

OK

1+1

iTunes

мы

OK

1

WEB-DLRip

Джокер

Пифагор

Ведьмак / The Witcher сериал

iTunes

ПШазам

ОК

Оно 2

iTunes

30
pack

Вам бонус

ВАЖНО

!!Акция!!

Alien_RageХит недели

RePack

Resident Evil 21

ИГРА 18+

pack

RePack

jed

RePack

fifa19

RePack

Assassins Creed: Odyssey

RePack

NEED FOR SPEED™ PAYBACK

4 сезон

9 сезон

Бесстыжие 9 сезон

Все сериалы

все сериалы на PB.wtf

RePack

FAR CRY 5
  

Скауты против зомби / Scouts Guide to the Zombie Apocalypse (Кристофер Лэндон / Christopher Landon) [2015, США, ужасы, комедия, BDRip-AVC от sokol_ok] DUB Лицензия pb.wtf

Скауты против зомби через торрент pb.wtf

Раздают: 1 [ 0 KB/s ]
Размер: 2.18 GB | Добавлен: 4 года назад | Торрент скачан:70 раз
Скачать  

06-01-2016 11:05 Скауты против зомби Скачать торрент  

Скауты против зомби
Scouts Guide to the Zombie Apocalypse

«Предохраняйся»


Страна: США
Жанр: ужасы, комедия

Год выпуска: 2015
Продолжительность: 01:32:45

Перевод: Профессиональный (полное дублирование) [Лицензия BD CEE]
Субтитры: Russian, Ukrainian, English, English (SDH), French, Portuguese, Vietnamese, Spanish
Оригинальная аудиодорожка: Английский

Режиссер: Кристофер Лэндон / Christopher Landon

В ролях: Тай Шеридан, Логан Миллер, Джои Морган, Сара Дюмон, Дэвид Кокнер, Холстон Сейдж, Клорис Личмен, Ники Косс, Хирам А. Мюррэй, Лукас Гейдж, Дрю Дродж, Патрик Шварценеггер

Описание:
Встречайте самую нелепую команду героев в мире - трое закадычных друзей-бойскаутов и безбашенная официантка. Именно им выпадает миссия остановить зомбиапокалипсис, который уже погрузил в хаос захолустный сонный городок и грозит охватить всю планету. Последняя надежда человечества - скаутские приемы и умения. К борьбе с зомби будь готов! Всегда готов! Релиз:

Автор рипа: Stalker oK

Сэмпл

Качество видео: BDRip-AVC [kinozal / Blu-ray Remux / 1080p]
Формат видео: MKV
Видео кодек: AVC
Аудио кодек: AC3
Видео: 2471 Кбит/сек, 1076*450 (2,40:1), в 23,976 (24000/1001) кадра/сек, AVC
Аудио #1: Russian, 448 Кбит/сек, 48,0 КГц, 6 каналов, AC-3
Аудио #2: English, 448 Кбит/сек, 48,0 КГц, 6 каналов, AC-3
Навигация по главам: есть

Общее
Уникальный идентификатор : 240256485830434071704447826101817043377 (0xB4BFB74E5BD044F6B97AB582FB53E9B1)
Полное имя : M:\Rips\Scouts Guide to the Zombie Apocalypse\1\Scouts.Guide.to.the.Zombie.Apocalypse.2015.BDRip-AVC.Dub.2.18Gb.stalkerok.new-team.mkv
Формат : Matroska
Версия формата : Version 4 / Version 2
Размер файла : 2,18 Гбайт
Продолжительность : 1 ч. 32 м.
Общий поток : 3369 Кбит/сек
Название фильма : Scouts Guide to the Zombie Apocalypse (2015) (New-Team) (Rip by Stalker oK)
Дата кодирования : UTC 2016-01-22 23:07:25
Программа кодирования : mkvmerge v8.6.1 ('Flying') 64bit
Библиотека кодирования : libebml v1.3.3 + libmatroska v1.4.4

Видео
Идентификатор : 1
Формат : AVC
Формат/Информация : Advanced Video Codec
Профиль формата : High@L4.1
Параметр CABAC формата : Да
Параметр ReFrames формата : 14 кадров
Идентификатор кодека : V_MPEG4/ISO/AVC
Продолжительность : 1 ч. 32 м.
Битрейт : 2471 Кбит/сек
Ширина : 1076 пикселей
Высота : 450 пикселей
Соотношение сторон : 2,40:1
Режим частоты кадров : Постоянный
Частота кадров : 23,976 (24000/1001) кадра/сек
Цветовое пространство : YUV
Субдискретизация насыщенности : 4:2:0
Битовая глубина : 8 бит
Тип развёртки : Прогрессивная
Бит/(Пиксели*Кадры) : 0.213
Размер потока : 1,60 Гбайт (73%)
Заголовок : Scouts Guide to the Zombie Apocalypse (2015) (New-Team) (Rip by Stalker oK)
Библиотека кодирования : x264 core 148 r2638kMod 7599210
Настройки программы : cabac=1 / ref=14 / deblock=1:-3:-3 / analyse=0x3:0x133 / me=umh / subme=11 / psy=1 / fade_compensate=0.00 / psy_rd=1.00:0.10 / mixed_ref=1 / me_range=48 / chroma_me=1 / trellis=2 / 8x8dct=1 / cqm=0 / deadzone=21,11 / fast_pskip=0 / chroma_qp_offset=-3 / threads=12 / lookahead_threads=3 / sliced_threads=0 / nr=0 / decimate=0 / interlaced=0 / bluray_compat=0 / constrained_intra=0 / fgo=0 / bframes=15 / b_pyramid=2 / b_adapt=2 / b_bias=0 / direct=3 / weightb=1 / open_gop=0 / weightp=2 / keyint=240 / keyint_min=23 / scenecut=40 / intra_refresh=0 / rc_lookahead=60 / rc=2pass / mbtree=0 / bitrate=2471 / ratetol=1.0 / qcomp=0.70 / qpmin=0 / qpmax=69 / qpstep=4 / cplxblur=20.0 / qblur=0.5 / vbv_maxrate=50000 / vbv_bufsize=62500 / nal_hrd=none / filler=0 / ip_ratio=1.40 / pb_ratio=1.30 / aq=3:0.90
Default : Да
Forced : Нет

Аудио #1
Идентификатор : 2
Формат : AC-3
Формат/Информация : Audio Coding 3
Расширение режима : CM (complete main)
Параметр Endianness формата : Big
Идентификатор кодека : A_AC3
Продолжительность : 1 ч. 32 м.
Вид битрейта : Постоянный
Битрейт : 448 Кбит/сек
Каналы : 6 каналов
Расположение каналов : Front: L C R, Side: L R, LFE
Частота : 48,0 КГц
Частота кадров : 31,250 кадров/сек (1536 spf)
Метод сжатия : С потерями
Размер потока : 297 Мбайт (13%)
Язык : English
Default : Нет
Forced : Нет

Аудио #2
Идентификатор : 3
Формат : AC-3
Формат/Информация : Audio Coding 3
Расширение режима : CM (complete main)
Параметр Endianness формата : Big
Идентификатор кодека : A_AC3
Продолжительность : 1 ч. 32 м.
Вид битрейта : Постоянный
Битрейт : 448 Кбит/сек
Каналы : 6 каналов
Расположение каналов : Front: L C R, Side: L R, LFE
Частота : 48,0 КГц
Частота кадров : 31,250 кадров/сек (1536 spf)
Метод сжатия : С потерями
Размер потока : 297 Мбайт (13%)
Язык : Russian
Default : Да
Forced : Нет

Текст #1
Идентификатор : 4
Формат : UTF-8
Идентификатор кодека : S_TEXT/UTF8
Идентификатор кодека/Информация : UTF-8 Plain Text
Продолжительность : 1 ч. 26 м.
Битрейт : 72 бит/сек
Count of elements : 1028
Размер потока : 45,8 Кбайт (0%)
Язык : Russian
Default : Нет
Forced : Нет

Текст #2
Идентификатор : 5
Формат : UTF-8
Идентификатор кодека : S_TEXT/UTF8
Идентификатор кодека/Информация : UTF-8 Plain Text
Продолжительность : 1 ч. 28 м.
Битрейт : 77 бит/сек
Count of elements : 1180
Размер потока : 50,3 Кбайт (0%)
Язык : Ukrainian
Default : Нет
Forced : Нет

Текст #3
Идентификатор : 6
Формат : UTF-8
Идентификатор кодека : S_TEXT/UTF8
Идентификатор кодека/Информация : UTF-8 Plain Text
Продолжительность : 1 ч. 28 м.
Битрейт : 55 бит/сек
Count of elements : 1377
Размер потока : 36,1 Кбайт (0%)
Язык : English
Default : Нет
Forced : Нет

Текст #4
Идентификатор : 7
Формат : UTF-8
Идентификатор кодека : S_TEXT/UTF8
Идентификатор кодека/Информация : UTF-8 Plain Text
Продолжительность : 1 ч. 26 м.
Битрейт : 50 бит/сек
Count of elements : 1154
Размер потока : 32,2 Кбайт (0%)
Язык : English
Default : Нет
Forced : Нет

Текст #5
Идентификатор : 8
Формат : UTF-8
Идентификатор кодека : S_TEXT/UTF8
Идентификатор кодека/Информация : UTF-8 Plain Text
Продолжительность : 1 ч. 28 м.
Битрейт : 51 бит/сек
Count of elements : 1164
Размер потока : 33,2 Кбайт (0%)
Язык : French
Default : Нет
Forced : Нет

Текст #6
Идентификатор : 9
Формат : UTF-8
Идентификатор кодека : S_TEXT/UTF8
Идентификатор кодека/Информация : UTF-8 Plain Text
Продолжительность : 1 ч. 26 м.
Битрейт : 38 бит/сек
Count of elements : 1059
Размер потока : 24,1 Кбайт (0%)
Язык : Portuguese
Default : Нет
Forced : Нет

Текст #7
Идентификатор : 10
Формат : UTF-8
Идентификатор кодека : S_TEXT/UTF8
Идентификатор кодека/Информация : UTF-8 Plain Text
Продолжительность : 1 ч. 26 м.
Битрейт : 72 бит/сек
Count of elements : 1215
Размер потока : 46,0 Кбайт (0%)
Язык : Vietnamese
Default : Нет
Forced : Нет

Текст #8
Идентификатор : 11
Формат : UTF-8
Идентификатор кодека : S_TEXT/UTF8
Идентификатор кодека/Информация : UTF-8 Plain Text
Продолжительность : 1 ч. 21 м.
Битрейт : 0 бит/сек
Count of elements : 6
Размер потока : 148 байт (0%)
Язык : Spanish
Default : Нет
Forced : Нет

Меню
00:00:00.000 : en:Chapter 01
00:06:45.154 : en:Chapter 02
00:14:53.767 : en:Chapter 03
00:21:31.164 : en:Chapter 04
00:27:01.953 : en:Chapter 05
00:31:30.597 : en:Chapter 06
00:39:25.237 : en:Chapter 07
00:45:57.838 : en:Chapter 08
00:51:13.987 : en:Chapter 09
00:57:32.198 : en:Chapter 10
01:06:08.130 : en:Chapter 11
01:12:08.949 : en:Chapter 12
01:20:00.003 : en:Chapter 13
01:26:04.534 : en:Chapter 14
pb.wtf



Скачать Скауты против зомби через торрент http://i72.fastpic.ru/big/2015/0531/46/68ef8a2783b58e5344cc30bbd3f1b046.png Скачать фильм Скауты против зомби через торрент бесплантно в хорошем качестве Описание:Встречайте самую нелепую команду героев в мире - трое закадычных друзей-бойскаутов и безбашенная официантка. Именно им выпадает ... 8.7 10 7
Info! Золотая раздача, скачанное не засчитывается.
Торрент: Зарегистрирован [2016-01-22 23:27] · скачан: 70 раз
Статус: √ проверено
Размер: 2.18 GB
Как cкачать? Как скачать Скауты против зомби через торрент | qTorrent

% Раздел Тема Автор DL S | L
Фильмы 2015 [DVDrip, WEB-DLRip, HDrip] [ 2.18 GB ] Скауты против зомби / Scouts Guide to the Zombie Apocalypse [2015 BDRip-AVC] DUB potroks Скачать
1 | 0
Фильмы 2015 [DVDrip, WEB-DLRip, HDrip] [ 1.46 GB ] Скауты против зомби / Scouts Guide to the Zombie Apocalypse [2015 BDRip-AVC] DUB potroks Скачать
1 | 0
Фильмы 2015 [DVDrip, WEB-DLRip, HDrip] [ 1.46 GB ] Скауты против зомби / Scouts Guide to the Zombie Apocalypse [2015 BDRip] DUB Twi7ter Скачать
1 | 0
Фильмы 2015 [DVDrip, WEB-DLRip, HDrip] [ 1.46 GB ] Скауты против зомби / Scouts Guide to the Zombie Apocalypse [2015 BDRip-AVC от sokol_ok] DUB sokol_ok Скачать
2 | 0

28-11-2019 20:33  

Отключить всю рекламу на сайте

22-01-2016 23:27 Скауты против зомби Скачать торрент  

Торрент файл перезалит. Лицензия iTunes 384 kbps заменена на лицензию Blu-ray CEE 448 kbps.pb.wtf



    Дорогой пользователь! Огромная просьба, поблагодарите релизера, оцените раздачу и оставьте свои комментарий, если Вы скачали Скауты против зомби через торрент бесплатно! Внесите свою лепту в развитие PiratBit!
    Комментировать посты могут только пользователи прошедшие не сложную регистрацию
    Показать сообщения:    

    Скауты против зомби через торрент
    Скачать бесплатно Скауты против зомби
    Скауты против зомби скачать торрент
    Скауты против зомби смотреть онлайн
    Cкачать фильм Скауты против зомби бесплатно
    Скауты против зомби скачать торрент в хорошем качестве
    Скауты против зомби смотреть онлайн бесплатно в хорошем качестве


    Вы не можете начинать темы
    Вы не можете отвечать на сообщения
    Вы не можете редактировать свои сообщения
    Вы не можете удалять свои сообщения
    Вы не можете голосовать в опросах
    Вы не можете прикреплять файлы к сообщениям
    Вы можете скачивать файлы