2 сезон

iTunes

MVO

1

2 сезон

iTunes

iTunes

1 сезон

RePack

30

Новинка

ВАЖНО

ИГРА 18+

pack

RePack

MK11
pack

Легкие деньги

RePack

jed

RePack

fifa19

RePack

RDR2

RePack

NEED FOR SPEED™ PAYBACK

4 сезон

9 сезон

Бесстыжие 9 сезон

Все сериалы

все сериалы на PB.wtf

RePack

FAR CRY 5

Anonymous, добрый вечер, мы не успеваем собрать деньги на оплату серверов за декабрь и январь, помогите нам пожалуйста в это трудное время. В качестве благодарности мы отключим Вам всю рекламу на сайте (укажите свой ник в строку Ваше имя)!

×
  
Magnet ссылка

Pop Evil - Footsteps [2015 г.] (Heavy Metal, Alternative) [WEB-DLRip, 1080p] pb.wtf

Pop Evil - Footsteps через торрент pb.wtf

Размер: 67 MB | Добавлен: 5 лет назад | Торрент скачан:16 раз
Скачать  

06-01-2016 13:50 Pop Evil - Footsteps Скачать торрент  


Pop Evil - Footsteps

Год выпуска: 2015 г.
Страна: USA
Жанр: Heavy Metal, Alternative
Продолжительность: 00:04:19
Качество видео: WEB-DLRip
Контейнер: MP4
Стандарт разрешения: 1080p
Видео кодек: AVC
Аудио кодек: AAC
Видео: 1920x1080, 2026 Кбит/сек, 24,000 кадра/сек, 0.041 bit/pic
Аудио: 126 Кбит/сек, 2 канала, 44,1 КГц

Описание: Участники: Ли Какати, Мэтт Дирито, Дейв Грейс, Ник Фуэллинг, Тони Грев, Дилан Аллисон
01. Footsteps

Код:

Общее
Полное имя                               : D:\Torrent files\Pop Evil - Footsteps 2015.mp4
Формат                                   : MPEG-4
Профиль формата                          : Base Media
Идентификатор кодека                     : isom
Размер файла                             : 66,8 Мбайт
Продолжительность                        : 4 м. 19 с.
Общий поток                              : 2157 Кбит/сек
Программа кодирования                    : Lavf55.33.100

Видео
Идентификатор                            : 1
Формат                                   : AVC
Формат/Информация                        : Advanced Video Codec
Профиль формата                          : High@L4
Параметр CABAC формата                   : Да
Параметр ReFrames формата                : 3 кадра
Идентификатор кодека                     : avc1
Идентификатор кодека/Информация          : Advanced Video Coding
Продолжительность                        : 4 м. 19 с.
Duration_FirstFrame                      : -42 мс.
Битрейт                                  : 2026 Кбит/сек
Ширина                                   : 1920 пикселей
Высота                                   : 1080 пикселей
Соотношение сторон                       : 16:9
Режим частоты кадров                     : Переменный
Частота кадров                           : 24,000 кадра/сек
Минимальная частота кадров               : 24,000 кадра/сек
Максимальная частота кадров              : 24,013 кадра/сек
Цветовое пространство                    : YUV
Субдискретизация насыщенности            : 4:2:0
Битовая глубина                          : 8 бит
Тип развёртки                            : Прогрессивная
Бит/(Пиксели*Кадры)                      : 0.041
Размер потока                            : 62,7 Мбайт (94%)

Аудио
Идентификатор                            : 2
Формат                                   : AAC
Формат/Информация                        : Advanced Audio Codec
Профиль формата                          : LC
Идентификатор кодека                     : 40
Продолжительность                        : 4 м. 19 с.
Вид битрейта                             : Постоянный
Битрейт                                  : 126 Кбит/сек
Каналы                                   : 2 канала
Расположение каналов                     : Front: L R
Частота                                  : 44,1 КГц
Метод сжатия                             : С потерями
Размер потока                            : 3,89 Мбайт (6%)


скриншот  скриншот  скриншот  скриншот  
скриншот  скриншот  скриншот  скриншот  
pb.wtf



Скачать Pop Evil - Footsteps через торрент http://i73.fastpic.ru/big/2016/0106/7c/411b81197c69a1e1018cb8d48af4747c.png Скачать фильм Pop Evil - Footsteps [2015 г.] через торрент бесплантно в хорошем качестве Описание: Участники: Ли Какати, Мэтт Дирито, Дейв Грейс, Ник Фуэллинг, Тони Грев, Дилан ... 9.3 10 3
Торрент: Зарегистрирован [2016-01-06 13:50] · скачан: 16 раз
Статус: √ проверено
Размер: 67 MB
Как cкачать? Как скачать Pop Evil - Footsteps через торрент | UTorrent

28-11-2019 20:33  

Отключить всю рекламу на сайте

    Дорогой пользователь! Огромная просьба, поблагодарите релизера, оцените раздачу и оставьте свои комментарий, если Вы скачали Pop Evil - Footsteps через торрент бесплатно! Внесите свою лепту в развитие PiratBit!
    Комментировать посты могут только пользователи прошедшие не сложную регистрацию
    Показать сообщения:    

    Pop Evil - Footsteps через торрент
    Скачать бесплатно Pop Evil - Footsteps
    Pop Evil - Footsteps скачать торрент
    Pop Evil - Footsteps смотреть онлайн
    Cкачать фильм Pop Evil - Footsteps бесплатно
    Pop Evil - Footsteps скачать торрент в хорошем качестве
    Pop Evil - Footsteps смотреть онлайн бесплатно в хорошем качестве


    Вы не можете начинать темы
    Вы не можете отвечать на сообщения
    Вы не можете редактировать свои сообщения
    Вы не можете удалять свои сообщения
    Вы не можете голосовать в опросах
    Вы не можете прикреплять файлы к сообщениям
    Вы можете скачивать файлы