Ссылка на приватное зеркало нашего сайта всего за 1$. Внимание количество ограничено!!!

2 сезон

iTunes

1 сезон

1

2 сезон

2 сезон

iTunes

1 сезон

RePack

30

Ultimate

ВАЖНО

ИГРА 18+

pack

RePack

MK11
pack

Забери бонус

RePack

jed

!!Акция!!

Alien_Rage

RePack

fifa19

RePack

Assassins Creed: Odyssey

RePack

NEED FOR SPEED™ PAYBACK

4 сезон

9 сезон

Бесстыжие 9 сезон

Все сериалы

все сериалы на PB.wtf

RePack

FAR CRY 5
  

Война и мир / War and Peace / Сезон: 1 / Серии 1-6 из 6 (Том Харпер) [2016г., драма, мелодрама, военный, история, WEBDLRip] MVO NewStudio pb.wtf

Война и мир через торрент pb.wtf

Размер: 4.39 GB | Добавлен: 4 года 9 мес. назад | Торрент скачан:350 раз
Скачать  

06-01-2016 13:55 Война и мир Скачать торрент  

Война и мир / War and Peace
Год выпуска: 2016
Страна: США, Великобритания
Жанр: драма, мелодрама, военный, история
Продолжительность: ~00:59:00

  • Перевод: Профессиональный (многоголосый, закадровый) [NewStudio];
  • Русские субтитры: нет
  • Оригинальная аудиодорожка: английская

Режиссер: Том Харпер
В ролях:
Анейрин Барнард, Пол Дано, Лили Джеймс, Джеймс Нортон, Оливия Росс, Рори Кинэн, Гийом Форе, Дэвид Куилтер, Кит Коннор, Отто Фаррант
Описание:
История, которая вращается вокруг пяти аристократических семей периода царствования Александра I, и в ее центре стоит любовный треугольник между Наташей Ростовой, Пьером Безуховым и Андреем Болконским.


  • Тип релиза: WEBDLRip
  • Формат: AVI
  • Видео кодек: XviD | Аудио кодек: MP3
  • Видео: 720x400 (1.80:1), 25 fps, XviD MPEG-4 ~1370 kbps avg, 0.19 bit/pixel
  • Аудио 1: Russian: 48 kHz, MP3, 2 ch, ~128 kbps avg
  • Аудио 2: English: 48 kHz, MP3, 2 ch, ~128 kbps avg
  • Субтитры: нет
Внимание! Раздача ведётся путём добавления новых серий; при каждом добавлении создаётся новый торрент-файл. Чтобы начать дозакачку новой серии, пользователям необходимо сделать следующее:
(1) остановить скачивание,
(2) удалить старый торрент-файл у себя из клиента (старые серии удалять не надо),
(3) скачать новый торрент-файл и запустить его у себя в клиенте вместо старого, при этом указать клиенту путь в старую папку куда и должно происходить скачивание новых серий.
Ваш клиент при этом должен произвести хеширование (проверку) старой папки (если не производит сам - помогите ему сделать это), и будет докачивать только те серии которых у вас ещё нет. Старые серии при этом не удаляются, а продолжают раздаваться!
Eсли вы уже удалили старые серии, то предотвратить повторную закачку старых серий можно, отжав галочку в соответствующих местах при запуске нового торрента.
General
Complete name : C:\торрент\War.and.Peace.2016.s01.WEBDLRip.NewStudio.TV\War.and.Peace.2016.s01e01.WEBDLRip.NewStudio.TV.avi
Format : AVI
Format/Info : Audio Video Interleave
File size : 700 MiB
Duration : 59mn 36s
Overall bit rate : 1 642 Kbps
Writing application : VirtualDubMod 1.5.10.2 (build 2540/release)
Writing library : VirtualDubMod build 2540/release

Video
ID : 0
Format : MPEG-4 Visual
Format profile : Advanced Simple@L5
Format settings, BVOP : 2
Format settings, QPel : No
Format settings, GMC : No warppoints
Format settings, Matrix : Default (MPEG)
Codec ID : XVID
Codec ID/Hint : XviD
Duration : 59mn 36s
Bit rate : 1 371 Kbps
Width : 720 pixels
Height : 400 pixels
Display aspect ratio : 16:9
Frame rate : 25.000 fps
Color space : YUV
Chroma subsampling : 4:2:0
Bit depth : 8 bits
Scan type : Progressive
Compression mode : Lossy
Bits/(Pixel*Frame) : 0.190
Stream size : 585 MiB (84%)
Writing library : XviD 73

Audio #1
ID : 1
Format : MPEG Audio
Format version : Version 1
Format profile : Layer 3
Mode : Joint stereo
Mode extension : MS Stereo
Codec ID : 55
Codec ID/Hint : MP3
Duration : 59mn 36s
Bit rate mode : Constant
Bit rate : 128 Kbps
Channel(s) : 2 channels
Sampling rate : 48.0 KHz
Compression mode : Lossy
Stream size : 54.6 MiB (8%)
Alignment : Aligned on interleaves
Interleave, duration : 40 ms (1.00 video frame)
Interleave, preload duratio : 504 ms

Audio #2
ID : 2
Format : MPEG Audio
Format version : Version 1
Format profile : Layer 3
Mode : Joint stereo
Mode extension : MS Stereo
Codec ID : 55
Codec ID/Hint : MP3
Duration : 59mn 36s
Bit rate mode : Constant
Bit rate : 128 Kbps
Channel(s) : 2 channels
Sampling rate : 48.0 KHz
Compression mode : Lossy
Stream size : 54.6 MiB (8%)
Alignment : Aligned on interleaves
Interleave, duration : 40 ms (1.00 video frame)
Interleave, preload duratio : 504 ms
Writing library : LAME3.99r
Encoding settings : -m j -V 4 -q 2 -lowpass 17 -b 128
Добавлена 6 серия! Сезон завершен!!!pb.wtf



Скачать Война и мир через торрент http://pic1.kartinco.top/images/10/j1sfx.jpg Скачать фильм Война и мир через торрент бесплантно в хорошем качестве Описание: История, которая вращается вокруг пяти аристократических семей периода царствования Александра I, и в ее центре стоит любовный ... 9.4 10 18
Info! Золотая раздача, скачанное не засчитывается.
Торрент: Зарегистрирован [2016-02-10 17:09] · скачан: 350 раз
Статус: √ проверено
Размер: 4.39 GB
Как cкачать? Как скачать Война и мир через торрент | qTorrent

% Раздел Тема Автор DL S | L
Зарубежные сериалы [ 17.48 GB ] Война и мир / War and Peace / Сезон: 1 / Серии 1-6 из 6 [2016 военный история WEB-DL 1080p] MVO NewStudio demorfeus Скачать
1 | 0


Последний раз редактировалось: diletant (2016-02-10 17:09), всего редактировалось 7 раз(а)

28-11-2019 20:33  

Отключить всю рекламу на сайте

06-01-2016 16:55 Война и мир Скачать торрент  

Дожилиpb.wtf



07-01-2016 07:59 Война и мир Скачать торрент  

Ну, рано или поздно, это должно было случиться.pb.wtf



13-01-2016 07:43 Война и мир Скачать торрент  

релиз заменен на WEBDLRippb.wtf



13-01-2016 07:55 Война и мир Скачать торрент  

Если сравнивать с нашим фильмом Бондарчука, то можно смело ставить 10 баллов хотя бы за смелость кастинга — все герои подходят по возрасту.. Кроме того, нет особого разделения на «хороших», которые нравятся Толстому и плохих, которые ему не нравятся..pb.wtf



13-01-2016 10:11 Война и мир Скачать торрент  

ну это лет на 10 минимум pb.wtf



13-01-2016 10:24 Война и мир Скачать торрент  

ranetka09 писал(а):

ну это лет на 10 минимум

Один сезон, 6 серий.pb.wtf



10-02-2016 20:52 Война и мир Скачать торрент  

Тема сисек хоть раскрыта, как это модно в современных сериалах про мать драконов? ;)pb.wtf



    Дорогой пользователь! Огромная просьба, поблагодарите релизера, оцените раздачу и оставьте свои комментарий, если Вы скачали Война и мир через торрент бесплатно! Внесите свою лепту в развитие PiratBit!
    Комментировать посты могут только пользователи прошедшие не сложную регистрацию
    Показать сообщения:    

    Война и мир через торрент
    Скачать бесплатно Война и мир
    Война и мир скачать торрент
    Война и мир смотреть онлайн
    Cкачать фильм Война и мир бесплатно
    Война и мир скачать торрент в хорошем качестве
    Война и мир смотреть онлайн бесплатно в хорошем качестве


    Вы не можете начинать темы
    Вы не можете отвечать на сообщения
    Вы не можете редактировать свои сообщения
    Вы не можете удалять свои сообщения
    Вы не можете голосовать в опросах
    Вы не можете прикреплять файлы к сообщениям
    Вы можете скачивать файлы