Ссылка на приватное зеркало нашего сайта всего за 1$. Внимание количество ограничено!!!

2 сезон

iTunes

1 сезон

1

2 сезон

2 сезон

iTunes

1 сезон

RePack

30

Ultimate

ВАЖНО

ИГРА 18+

pack

RePack

MK11
pack

Забери бонус

RePack

jed

!!Акция!!

Alien_Rage

RePack

fifa19

RePack

Assassins Creed: Odyssey

RePack

NEED FOR SPEED™ PAYBACK

4 сезон

9 сезон

Бесстыжие 9 сезон

Все сериалы

все сериалы на PB.wtf

RePack

FAR CRY 5
  

Дом с паранормальными явлениями 2 / A Haunted House 2 (Майкл Тиддес / Michael Tiddes) [2014, ужасы, комедия, BDRip-AVC от potroks] Dub [iTunes] pb.wtf

Дом с паранормальными явлениями 2 через торрент pb.wtf

Размер: 2.14 GB | Добавлен: 4 года 10 мес. назад | Торрент скачан:225 раз
Скачать  

06-01-2016 15:48 Дом с паранормальными явлениями 2 Скачать торрент  

Дом с паранормальными явлениями 2 / A Haunted House 2
«Нагнали страху аж до сиквела»
Год выпуска: 2014
Страна: США / Wayans Bros. Entertainment...
Жанр: ужасы, комедия
Продолжительность: 01:26:53
Перевод: Дубляж [iTunes]
Субтитры: английские (Full + SDH + SDH-Colred)
Навигация по главам: есть
Режиссер: Майкл Тиддес / Michael Tiddes
В ролях:

Марлон Уайанс (Malcolm), Джейми Прессли (Megan), Эссенс Эткинс (Kisha), Габриэль Иглесиас (Miguel), Мисси Пайл (Noreen), Эшли Рикардс (Becky), Эффион Крокетт (Ray Ray), Стил Стеббинс (Wyatt), Рик Овертон (Professor Wilde), Хэйз МакАртур (Ned), Дейв Шеридан (Agouhl), Седрик «Развлекатель» (Father Williams)
Описание: Малькольм, изгнавший демонов из своей бывшей подружки, начинает новую жизнь с другой девушкой и ее двумя детьми. После переезда в дом своей мечты, с Малькольмом снова начинают случаться загадочные происшествия. И, похоже, паранормальные явления теперь преследуют его не только в собственном доме...

Качество: BDRip-AVC
Формат: MKV
Видео кодек: AVC
Аудио кодек: AC3
Видео: 1060x572 (1.853), 2696 kbps, 23,976 fps, 0,185 bit/pixel
Аудио №1: AC3 / 5.1 / 48 kHz / 384 kbps / 16 bit | RUS
Аудио №2: AC3 / 5.1 / 48 kHz / 448 kbps / 16 bit | ENG

Релиз группы:
Автор рипа: potroks

Код:

General
Unique ID                                : 198978638631356808042351520062360673127 (0x95B1E44FD89542BFBD601C95BBD65B67)
Complete name                            : Dom.s.Paranormal'nymi.Yavleniyami.Dilogy.[2013-2014].-HELLYWOOD\Dom.s.Paranormal'nymi.Yavleniyami.II.2014.DUAL.BDRip.x264.-HELLYWOOD.mkv
Format                                   : Matroska
Format version                           : Version 4 / Version 2
File size                                : 2.14 GiB
Duration                                 : 1h 26mn
Overall bit rate                         : 3 525 Kbps
Movie name                               : A Haunted House 2 (2014) - HELLYWOOD
Encoded date                             : UTC 2010-02-22 21:41:31
Writing application                      : mkvmerge v5.8.0 ('No Sleep / Pillow') built on Sep 30 2012 10:57:14
Writing library                          : libebml v1.3.0 + libmatroska v1.4.0

Video
ID                                       : 1
Format                                   : AVC
Format/Info                              : Advanced Video Codec
Format profile                           : High@L4.1
Format settings, CABAC                   : Yes
Format settings, ReFrames                : 10 frames
Codec ID                                 : V_MPEG4/ISO/AVC
Duration                                 : 1h 26mn
Bit rate                                 : 2 696 Kbps
Width                                    : 1 060 pixels
Height                                   : 572 pixels
Display aspect ratio                     : 1.853
Frame rate                               : 23.976 fps
Color space                              : YUV
Chroma subsampling                       : 4:2:0
Bit depth                                : 8 bits
Scan type                                : Progressive
Bits/(Pixel*Frame)                       : 0.185
Stream size                              : 1.59 GiB (74%)
Title                                    : potroks
Writing library                          : x264 core 146 r2538 121396c
Encoding settings                        : cabac=1 / ref=10 / deblock=1:-3:-3 / analyse=0x3:0x113 / me=umh / subme=11 / psy=1 / psy_rd=1.00:0.04 / mixed_ref=1 / me_range=48 / chroma_me=1 / trellis=2 / 8x8dct=1 / cqm=0 / deadzone=21,11 / fast_pskip=0 / chroma_qp_offset=-3 / threads=9 / lookahead_threads=2 / sliced_threads=0 / nr=0 / decimate=1 / interlaced=0 / bluray_compat=0 / constrained_intra=0 / bframes=11 / b_pyramid=2 / b_adapt=2 / b_bias=0 / direct=3 / weightb=1 / open_gop=0 / weightp=2 / keyint=240 / keyint_min=23 / scenecut=40 / intra_refresh=0 / rc_lookahead=60 / rc=2pass / mbtree=0 / bitrate=2696 / ratetol=1.0 / qcomp=0.70 / qpmin=0 / qpmax=69 / qpstep=4 / cplxblur=20.0 / qblur=0.5 / vbv_maxrate=14000 / vbv_bufsize=14000 / nal_hrd=none / filler=0 / ip_ratio=1.35 / pb_ratio=1.25 / aq=1:0.80
Language                                 : English
Default                                  : Yes
Forced                                   : No

Audio #1
ID                                       : 2
Format                                   : AC-3
Format/Info                              : Audio Coding 3
Mode extension                           : CM (complete main)
Codec ID                                 : A_AC3
Duration                                 : 1h 26mn
Bit rate mode                            : Constant
Bit rate                                 : 384 Kbps
Channel(s)                               : 6 channels
Channel positions                        : Front: L C R, Side: L R, LFE
Sampling rate                            : 48.0 KHz
Bit depth                                : 16 bits
Compression mode                         : Lossy
Stream size                              : 239 MiB (11%)
Title                                    : Dub | DD 5.1 @ 384 kbps - iTunes
Language                                 : Russian
Default                                  : Yes
Forced                                   : No

Audio #2
ID                                       : 3
Format                                   : AC-3
Format/Info                              : Audio Coding 3
Mode extension                           : CM (complete main)
Codec ID                                 : A_AC3
Duration                                 : 1h 26mn
Bit rate mode                            : Constant
Bit rate                                 : 448 Kbps
Channel(s)                               : 6 channels
Channel positions                        : Front: L C R, Side: L R, LFE
Sampling rate                            : 48.0 KHz
Bit depth                                : 16 bits
Compression mode                         : Lossy
Stream size                              : 278 MiB (13%)
Title                                    : Original | DD 5.1 @ 448 kbps
Language                                 : English
Default                                  : No
Forced                                   : No

Text #1
ID                                       : 4
Format                                   : UTF-8
Codec ID                                 : S_TEXT/UTF8
Codec ID/Info                            : UTF-8 Plain Text
Title                                    : Full
Language                                 : English
Default                                  : No
Forced                                   : No

Text #2
ID                                       : 5
Format                                   : UTF-8
Codec ID                                 : S_TEXT/UTF8
Codec ID/Info                            : UTF-8 Plain Text
Title                                    : SDH
Language                                 : English
Default                                  : No
Forced                                   : No

Text #3
ID                                       : 6
Format                                   : UTF-8
Codec ID                                 : S_TEXT/UTF8
Codec ID/Info                            : UTF-8 Plain Text
Title                                    : SDH-Colored
Language                                 : English
Default                                  : No
Forced                                   : No

Menu
00:00:00.000                             : en:Chapter 01
00:03:38.176                             : en:Chapter 02
00:07:40.084                             : en:Chapter 03
00:12:18.487                             : en:Chapter 04
00:17:27.838                             : en:Chapter 05
00:23:32.661                             : en:Chapter 06
00:29:36.399                             : en:Chapter 07
00:33:52.989                             : en:Chapter 08
00:37:33.542                             : en:Chapter 09
00:40:22.002                             : en:Chapter 10
00:43:05.833                             : en:Chapter 11
00:47:35.602                             : en:Chapter 12
00:50:14.261                             : en:Chapter 13
00:55:32.120                             : en:Chapter 14
01:00:16.821                             : en:Chapter 15
01:04:35.746                             : en:Chapter 16
01:08:17.718                             : en:Chapter 17
01:12:14.371                             : en:Chapter 18
01:15:57.261                             : en:Chapter 19
01:20:03.548                             : en:Chapter 20
01:26:53.333                             : en:Chapter 21

pb.wtf



Скачать Дом с паранормальными явлениями 2 через торрент http://i73.fastpic.ru/big/2016/0106/72/14ec59c29193b5210e71f1c77e290e72.png Скачать фильм Дом с паранормальными явлениями 2 через торрент бесплантно в хорошем качестве Описание: Малькольм, изгнавший демонов из своей бывшей подружки, начинает новую жизнь с другой девушкой и ее двумя детьми. После переезда ... 7.8 10 4
Info! Золотая раздача, скачанное не засчитывается.
Торрент: Зарегистрирован [2016-01-06 15:48] · скачан: 225 раз
Статус: √ проверено
Размер: 2.14 GB
Как cкачать? Как скачать Дом с паранормальными явлениями 2 через торрент | qTorrent

% Раздел Тема Автор DL S | L
Фильмы 2014 [DVDrip, WEB-DLRip, HDrip] [ 2.14 GB ] Дом с паранормальными явлениями 2 / A Haunted House 2 [2014 BDRip-AVC от sokol_ok] Dub sokol_ok Скачать
2 | 0
Фильмы 2014 [DVDrip, WEB-DLRip, HDrip] [ 1.42 GB ] Дом с паранормальными явлениями 2 / A Haunted House 2 [2014 BDRip-AVC от sokol_ok] Dub sokol_ok Скачать
2 | 0
Фильмы 2014 [DVDrip, WEB-DLRip, HDrip] [ 1.46 GB ] Дом с паранормальными явлениями 2 / A Haunted House 2 [2014 HDRip ""] coc900 Скачать
1 | 0

28-11-2019 20:33  

Отключить всю рекламу на сайте

06-01-2016 20:21 Дом с паранормальными явлениями 2 Скачать торрент  



Если что, то ФШ...)))pb.wtf



06-01-2016 21:29 Дом с паранормальными явлениями 2 Скачать торрент  

Бред или нет,кто нибудь подскажите а то скачал ,ещё несмотрел?pb.wtf



    Дорогой пользователь! Огромная просьба, поблагодарите релизера, оцените раздачу и оставьте свои комментарий, если Вы скачали Дом с паранормальными явлениями 2 через торрент бесплатно! Внесите свою лепту в развитие PiratBit!
    Комментировать посты могут только пользователи прошедшие не сложную регистрацию
    Показать сообщения:    

    Дом с паранормальными явлениями 2 через торрент
    Скачать бесплатно Дом с паранормальными явлениями 2
    Дом с паранормальными явлениями 2 скачать торрент
    Дом с паранормальными явлениями 2 смотреть онлайн
    Cкачать фильм Дом с паранормальными явлениями 2 бесплатно
    Дом с паранормальными явлениями 2 скачать торрент в хорошем качестве
    Дом с паранормальными явлениями 2 смотреть онлайн бесплатно в хорошем качестве


    Вы не можете начинать темы
    Вы не можете отвечать на сообщения
    Вы не можете редактировать свои сообщения
    Вы не можете удалять свои сообщения
    Вы не можете голосовать в опросах
    Вы не можете прикреплять файлы к сообщениям
    Вы можете скачивать файлы