Ссылка на приватное зеркало всего за 1$. Внимание количество ограничено!!!

OK

1+1

iTunes

мы

OK

1

WEB-DLRip

Джокер

Пифагор

Ведьмак / The Witcher сериал

iTunes

ПШазам

ОК

Оно 2

iTunes

30
pack

Вам бонус

ВАЖНО

!!Акция!!

Alien_RageХит недели

RePack

Resident Evil 21

ИГРА 18+

pack

RePack

jed

RePack

fifa19

RePack

Assassins Creed: Odyssey

RePack

NEED FOR SPEED™ PAYBACK

4 сезон

9 сезон

Бесстыжие 9 сезон

Все сериалы

все сериалы на PB.wtf

RePack

FAR CRY 5
  

Скауты против зомби / Scouts Guide to the Zombie Apocalypse (Кристофер Лэндон) [2015 г., ужасы, комедия, HDRip ] DUB [iTunes] pb.wtf

Скауты против зомби через торрент pb.wtf

Размер: 2.01 GB | Добавлен: 4 года назад | Торрент скачан:194 раза
Скачать  

06-01-2016 17:37 Скауты против зомби Скачать торрент  


Год выхода: 2015
Жанр:Ужасы, комедия
Страна: США / Paramount Pictures, Broken Road Productions
Длительность: 01:32:45
Озвучивание: Дублированное [iTunes]
Субтитры: Нет
Режиссер: Кристофер Лэндон
В ролях: Тай Шеридан, Логан Миллер, Джои Морган, Сара Дюмон, Дэвид Кокнер, Холстон Сейдж, Клорис Личмен, Ники Косс, Хирам А. Мюррэй, Лукас Гейдж

Описание: Встречайте самую нелепую команду героев в мире — трое закадычных друзей-бойскаутов и безбашенная официантка. Именно им выпадает миссия остановить зомбиапокалипсис, который уже погрузил в хаос захолустный сонный городок и грозит охватить всю планету. Последняя надежда человечества — скаутские приемы и умения. К борьбе с зомби будь готов! Всегда готов!
Качество: HDRip
Формат: AVI
Видео кодек:XviD
Аудио кодек: AC3
Видео: MPEG-4 Visual, 2259 kb/s, 720x304,23,976 кадра/сек
Аудио 1: Russian: AC3, 384 kb/s (6 ch),48,0 КГц
Аудио 2: English: AC3, 448 Кбит/сек (6 ch),48,0 КГц
Общее
Полное имя : F:\Skauty.Protiv.Zombi.2015.HDRip.by.grab777.avi
Формат : AVI
Формат/Информация : Audio Video Interleave
Профиль формата : OpenDML
Размер файла : 2,01 Гбайт
Продолжительность : 1 ч. 32 м.
Общий поток : 3107 Кбит/сек
Название фильма : Rip_by_grab777
Программа кодирования : XviD4PSP 6.0 / 54.29.105

Видео
Идентификатор : 0
Формат : MPEG-4 Visual
Профиль формата : Advanced Simple@L5
Параметр BVOP формата : 1
Параметр QPel формата : Нет
Параметр GMC формата : Без точки перехода
Параметр матрицы формата : Default (H.263)
Идентификатор кодека : XVID
Идентификатор кодека/Подсказка : XviD
Продолжительность : 1 ч. 32 м.
Битрейт : 2259 Кбит/сек
Ширина : 720 пикселей
Высота : 304 пикселя
Соотношение сторон : 2,40:1
Частота кадров : 23,976 кадра/сек
Цветовое пространство : YUV
Субдискретизация насыщенности : 4:2:0
Битовая глубина : 8 бит
Тип развёртки : Прогрессивная
Метод сжатия : С потерями
Бит/(Пиксели*Кадры) : 0.430
Размер потока : 1,46 Гбайт (73%)
Заголовок : Rip_by_grab777
Библиотека кодирования : XviD 64

Аудио #1
Идентификатор : 1
Формат : AC-3
Формат/Информация : Audio Coding 3
Расширение режима : CM (complete main)
Параметр Endianness формата : Big
Идентификатор кодека : 2000
Продолжительность : 1 ч. 32 м.
Вид битрейта : Постоянный
Битрейт : 384 Кбит/сек
Каналы : 6 каналов
Расположение каналов : Front: L C R, Side: L R, LFE
Частота : 48,0 КГц
Битовая глубина : 16 бит
Метод сжатия : С потерями
Размер потока : 255 Мбайт (12%)
Выравнивание : Соединение по промежуткам
Продолжительность промежутка : 32 мс. (0,77 видеокадр)
Заголовок : DUB [iTunes]

Аудио #2
Идентификатор : 2
Формат : AC-3
Формат/Информация : Audio Coding 3
Расширение режима : CM (complete main)
Параметр Endianness формата : Big
Идентификатор кодека : 2000
Продолжительность : 1 ч. 32 м.
Вид битрейта : Постоянный
Битрейт : 448 Кбит/сек
Каналы : 6 каналов
Расположение каналов : Front: L C R, Side: L R, LFE
Частота : 48,0 КГц
Битовая глубина : 16 бит
Метод сжатия : С потерями
Размер потока : 297 Мбайт (14%)
Выравнивание : Соединение по промежуткам
Продолжительность промежутка : 32 мс. (0,77 видеокадр)
Заголовок : Оригинал
скриншот   скриншот   скриншот   скриншот  
pb.wtf



Скачать Скауты против зомби через торрент http://pic1.kartinco.top/images/10/sd67m.jpg Скачать фильм Скауты против зомби через торрент бесплантно в хорошем качестве Описание: Встречайте самую нелепую команду героев в мире — трое закадычных друзей-бойскаутов и безбашенная официантка. Именно им выпадает ... 10 10 5
Торрент: Зарегистрирован [2016-01-06 17:37] · скачан: 194 раз
Статус: √ проверено
Размер: 2.01 GB
Как cкачать? Как скачать Скауты против зомби через торрент | qTorrent

% Раздел Тема Автор DL S | L
Фильмы (HD 720p, 1080p) (48-60 fps) [ 8.98 GB ] Скауты против зомби / Scouts Guide to the Zombie Apocalypse [2015 BDRip 720p by mimok [BD CEE] 60fps mimok Скачать
1 | 0
Фильмы 2015 [DVDrip, WEB-DLRip, HDrip] [ 709 MB ] Скауты против зомби / Scouts Guide to the Zombie Apocalypse [2015 HDRip " BD CEE"] coc900 Скачать
1 | 0
Фильмы (Blu-ray, BD-Remux, HDDVD) [ 28.87 GB ] Скауты против зомби / Scouts Guide to the Zombie Apocalypse [2015 Blu-Ray] от BlueBird / Russian Mafia Скачать
1 | 0
Фильмы 2015 [DVDrip, WEB-DLRip, HDrip] [ 2.18 GB ] Скауты против зомби / Scouts Guide to the Zombie Apocalypse [2015 BDRip-AVC] DUB potroks Скачать
1 | 0
Фильмы 2015 [DVDrip, WEB-DLRip, HDrip] [ 1.46 GB ] Скауты против зомби / Scouts Guide to the Zombie Apocalypse [2015 BDRip-AVC] DUB potroks Скачать
1 | 0
Фильмы 2015 [DVDrip, WEB-DLRip, HDrip] [ 1.46 GB ] Скауты против зомби / Scouts Guide to the Zombie Apocalypse [2015 BDRip] DUB Twi7ter Скачать
1 | 0
Фильмы 2015 [DVDrip, WEB-DLRip, HDrip] [ 2.18 GB ] Скауты против зомби / Scouts Guide to the Zombie Apocalypse [2015 BDRip-AVC от sokol_ok] DUB sokol_ok Скачать
2 | 0

28-11-2019 20:33  

Отключить всю рекламу на сайте

06-01-2016 20:45 Скауты против зомби Скачать торрент  

Как фильм?pb.wtf



    Дорогой пользователь! Огромная просьба, поблагодарите релизера, оцените раздачу и оставьте свои комментарий, если Вы скачали Скауты против зомби через торрент бесплатно! Внесите свою лепту в развитие PiratBit!
    Комментировать посты могут только пользователи прошедшие не сложную регистрацию
    Показать сообщения:    

    Скауты против зомби через торрент
    Скачать бесплатно Скауты против зомби
    Скауты против зомби скачать торрент
    Скауты против зомби смотреть онлайн
    Cкачать фильм Скауты против зомби бесплатно
    Скауты против зомби скачать торрент в хорошем качестве
    Скауты против зомби смотреть онлайн бесплатно в хорошем качестве


    Вы не можете начинать темы
    Вы не можете отвечать на сообщения
    Вы не можете редактировать свои сообщения
    Вы не можете удалять свои сообщения
    Вы не можете голосовать в опросах
    Вы не можете прикреплять файлы к сообщениям
    Вы можете скачивать файлы