Ссылка на приватное зеркало нашего сайта всего за 1$. Внимание количество ограничено!!!

2 сезон

iTunes

1 сезон

1

iTunes

iTunes

iTunes

1 сезон

RePack

30

ИГРА 18+

pack

ВАЖНО

!!Акция!!

Alien_RageХит недели

RePack

MK11
pack

Забери бонус

RePack

jed

!!Акция!!

Alien_Rage

RePack

fifa19

RePack

Assassins Creed: Odyssey

RePack

NEED FOR SPEED™ PAYBACK

4 сезон

9 сезон

Бесстыжие 9 сезон

Все сериалы

все сериалы на PB.wtf

RePack

FAR CRY 5
  

Совокупность лжи / Body of Lies (Ридли Скотт ) [2008, боевик, триллер, драма, BDRip 1080p от _denis_100 / NNNB] DUB, DVO, 3xAVO pb.wtf

Совокупность лжи через торрент pb.wtf

Размер: 12.73 GB | Добавлен: 4 года 9 мес. назад | Торрент скачан:208 раз
Скачать  

06-01-2016 18:39 Совокупность лжи Скачать торрент  

Совокупность лжи / Body of Lies
«Не верь никому. Обмани всех»


Год выпуска: 2008
Страна: США, Великобритания
Жанр: боевик, триллер, драма
Продолжительность: 02:08:19
Перевод: Дублированный, Профессиональный (двухголосый), Авторский (одноголосый)
Субтитры: русские (Forced), русские (Full), английские (Full), английские (SDH)
Режиссер: Ридли Скотт
В ролях: Леонардо ДиКаприо , Рассел Кроу , Марк Стронг , Голшифте Фарахани , Оскар Айзек , Али Сулиман , Алон Абутбул , Винс Колосимо , Саймон МакБерни , Мехди Неббу , Майкл Гэстон , Каис Насеф
Описание:
ЦРУ охотится на руководителя серии террористических атак. Роджер Феррис является агентом национальной разведки, он перемещается по всему свету, пытаясь предотвратить любые нежелательные события. Око в небе, спутник, наблюдает за ним. На другом конце этой связи ветеран ЦРУ Эд Хоффман, который отслеживает события издалека.
Чем ближе подбирается Феррис к своей цели, тем явственнее понимает, что доверие - это одновременно и опасная штука, и то единственное, что позволит ему остаться в живых.

R - Лицам до 17 лет обязательно присутствие взрослого
Качество: BDRip 1080p
Контейнер (Расширение): MKV
Видео: 1920x800, 11000 Кбит/сек, 23,976 кадр/сек, 0,299 Бит/[Пиксели*Кадры]
Аудио №1: русский / AC3 / 5.1 / 48 kHz / 448 kbps / 16 bit |Дублированный, Blu-ray CEE|
Аудио №2: русский / AC3 / 5.1 / 48 kHz / 384 kbps / 16 bit |Профессиональный двухголосый|
Аудио №3: русский / AC3 / 5.1 / 48 kHz / 640 kbps / 16 bit |Авторский, Ю. Сербин|
Аудио №4: русский / AC3 / 5.1 / 48 kHz / 640 kbps / 16 bit |Авторский, А. Гаврилов|
Аудио №5: русский / AC3 / 5.1 / 48 kHz / 448 kbps / 16 bit |Авторский, А. Дольский|
Аудио №6: английский / AC3 / 5.1 / 48 kHz / 640 kbps / 16 bit
Навигация по главам(Чаптеры): естьАвтор рипа: Сообщество:

Код:

Format                                   : Matroska
Format version                           : Version 2
File size                                : 12.7 GiB
Duration                                 : 2h 8mn
Overall bit rate                         : 14.2 Mbps
Movie name                               : Body of Lies.(2008).BDRip.1080p.[denis100]
Encoded date                             : UTC 2016-01-06 17:16:54
Writing application                      : mkvmerge v5.8.0 ('No Sleep / Pillow') built on Sep  2 2012 15:37:04
Writing library                          : libebml v1.2.3 + libmatroska v1.3.0

Video
ID                                       : 1
Format                                   : AVC
Format/Info                              : Advanced Video Codec
Format profile                           : High@L4.1
Format settings, CABAC                   : Yes
Format settings, ReFrames                : 5 frames
Codec ID                                 : V_MPEG4/ISO/AVC
Duration                                 : 2h 8mn
Bit rate                                 : 11.0 Mbps
Width                                    : 1 920 pixels
Height                                   : 800 pixels
Display aspect ratio                     : 2.40:1
Frame rate                               : 23.976 fps
Color space                              : YUV
Chroma subsampling                       : 4:2:0
Bit depth                                : 8 bits
Scan type                                : Progressive
Bits/(Pixel*Frame)                       : 0.299
Stream size                              : 9.60 GiB (75%)
Title                                    : Body of Lies.(2008).BDRip.1080p.[denis100]
Writing library                          : x264 core 148 r2638 7599210
Encoding settings                        : cabac=1 / ref=5 / deblock=1:-3:-3 / analyse=0x3:0x133 / me=umh / subme=11 / psy=1 / psy_rd=1.00:0.05 / mixed_ref=1 / me_range=32 / chroma_me=1 / trellis=2 / 8x8dct=1 / cqm=0 / deadzone=21,11 / fast_pskip=0 / chroma_qp_offset=-3 / threads=6 / lookahead_threads=1 / sliced_threads=0 / nr=0 / decimate=1 / interlaced=0 / bluray_compat=0 / constrained_intra=0 / bframes=8 / b_pyramid=2 / b_adapt=2 / b_bias=0 / direct=3 / weightb=1 / open_gop=0 / weightp=2 / keyint=240 / keyint_min=23 / scenecut=40 / intra_refresh=0 / rc=2pass / mbtree=0 / bitrate=11000 / ratetol=1.0 / qcomp=0.60 / qpmin=0 / qpmax=69 / qpstep=4 / cplxblur=20.0 / qblur=0.5 / ip_ratio=1.40 / pb_ratio=1.30 / aq=2:0.90
Language                                 : English
Default                                  : Yes
Forced                                   : No

Audio #1
ID                                       : 2
Format                                   : AC-3
Format/Info                              : Audio Coding 3
Mode extension                           : CM (complete main)
Codec ID                                 : A_AC3
Duration                                 : 2h 8mn
Bit rate mode                            : Constant
Bit rate                                 : 448 Kbps
Channel(s)                               : 6 channels
Channel positions                        : Front: L C R, Side: L R, LFE
Sampling rate                            : 48.0 KHz
Bit depth                                : 16 bits
Compression mode                         : Lossy
Stream size                              : 411 MiB (3%)
Title                                    : DUB, Blu-ray CEE
Language                                 : Russian
Default                                  : Yes
Forced                                   : No

Audio #2
ID                                       : 3
Format                                   : AC-3
Format/Info                              : Audio Coding 3
Mode extension                           : CM (complete main)
Codec ID                                 : A_AC3
Duration                                 : 2h 8mn
Bit rate mode                            : Constant
Bit rate                                 : 384 Kbps
Channel(s)                               : 6 channels
Channel positions                        : Front: L C R, Side: L R, LFE
Sampling rate                            : 48.0 KHz
Bit depth                                : 16 bits
Compression mode                         : Lossy
Stream size                              : 352 MiB (3%)
Title                                    : DVO
Language                                 : Russian
Default                                  : No
Forced                                   : No

Audio #3
ID                                       : 4
Format                                   : AC-3
Format/Info                              : Audio Coding 3
Mode extension                           : CM (complete main)
Codec ID                                 : A_AC3
Duration                                 : 2h 8mn
Bit rate mode                            : Constant
Bit rate                                 : 640 Kbps
Channel(s)                               : 6 channels
Channel positions                        : Front: L C R, Side: L R, LFE
Sampling rate                            : 48.0 KHz
Bit depth                                : 16 bits
Compression mode                         : Lossy
Stream size                              : 587 MiB (5%)
Title                                    : AVO, Ю. Сербин
Language                                 : Russian
Default                                  : No
Forced                                   : No

Audio #4
ID                                       : 5
Format                                   : AC-3
Format/Info                              : Audio Coding 3
Mode extension                           : CM (complete main)
Codec ID                                 : A_AC3
Duration                                 : 2h 8mn
Bit rate mode                            : Constant
Bit rate                                 : 640 Kbps
Channel(s)                               : 6 channels
Channel positions                        : Front: L C R, Side: L R, LFE
Sampling rate                            : 48.0 KHz
Bit depth                                : 16 bits
Compression mode                         : Lossy
Stream size                              : 587 MiB (5%)
Title                                    : AVO, А. Гаврилов
Language                                 : Russian
Default                                  : No
Forced                                   : No

Audio #5
ID                                       : 6
Format                                   : AC-3
Format/Info                              : Audio Coding 3
Mode extension                           : CM (complete main)
Codec ID                                 : A_AC3
Duration                                 : 2h 8mn
Bit rate mode                            : Constant
Bit rate                                 : 448 Kbps
Channel(s)                               : 6 channels
Channel positions                        : Front: L C R, Side: L R, LFE
Sampling rate                            : 48.0 KHz
Bit depth                                : 16 bits
Compression mode                         : Lossy
Stream size                              : 411 MiB (3%)
Title                                    : AVO, А. Дольский
Language                                 : Russian
Default                                  : No
Forced                                   : No

Audio #6
ID                                       : 7
Format                                   : AC-3
Format/Info                              : Audio Coding 3
Mode extension                           : CM (complete main)
Codec ID                                 : A_AC3
Duration                                 : 2h 8mn
Bit rate mode                            : Constant
Bit rate                                 : 640 Kbps
Channel(s)                               : 6 channels
Channel positions                        : Front: L C R, Side: L R, LFE
Sampling rate                            : 48.0 KHz
Bit depth                                : 16 bits
Compression mode                         : Lossy
Stream size                              : 587 MiB (5%)
Language                                 : English
Default                                  : No
Forced                                   : No

Text #1
ID                                       : 8
Format                                   : UTF-8
Codec ID                                 : S_TEXT/UTF8
Codec ID/Info                            : UTF-8 Plain Text
Title                                    : Forced
Language                                 : Russian
Default                                  : Yes
Forced                                   : No

Text #2
ID                                       : 9
Format                                   : UTF-8
Codec ID                                 : S_TEXT/UTF8
Codec ID/Info                            : UTF-8 Plain Text
Title                                    : Full
Language                                 : Russian
Default                                  : No
Forced                                   : No

Text #3
ID                                       : 10
Format                                   : UTF-8
Codec ID                                 : S_TEXT/UTF8
Codec ID/Info                            : UTF-8 Plain Text
Title                                    : Full
Language                                 : English
Default                                  : No
Forced                                   : No

Text #4
ID                                       : 11
Format                                   : UTF-8
Codec ID                                 : S_TEXT/UTF8
Codec ID/Info                            : UTF-8 Plain Text
Title                                    : SDH
Language                                 : English
Default                                  : No
Forced                                   : No

Menu
00:00:00.000                             : en:Now They Will Bleed
00:03:08.188                             : en:Our Enemy
00:06:53.871                             : en:Reluctant Martyr
00:12:32.960                             : en:Cut Him Loose
00:16:10.719                             : en:You Do Know We're at War
00:18:41.578                             : en:High-Value Targets
00:26:49.107                             : en:See You on the Way Down
00:30:44.634                             : en:Hani's Rule
00:34:10.590                             : en:Cover Blown
00:39:22.401                             : en:Punishment
00:41:48.506                             : en:Amsterdam Strike
00:44:08.312                             : en:A Man Inside
00:48:10.012                             : en:No Reciprocity
00:52:48.957                             : en:Elusive Quarry
00:56:01.524                             : en:Apart From His Job
01:00:10.690                             : en:Hani's Ultimatum
01:03:56.749                             : en:What If?
01:07:02.852                             : en:Straw Man
01:09:53.814                             : en:Setting up Sadiki
01:14:44.229                             : en:Return to Jordan
01:17:20.427                             : en:Family Lunch
01:22:43.249                             : en:In Business
01:24:49.709                             : en:Implementing Fig Orchard
01:28:14.914                             : en:Eyes on Sadiki
01:31:36.324                             : en:About This American
01:35:20.005                             : en:In the Picture
01:40:17.803                             : en:Trading for Aisha
01:43:22.696                             : en:Sorry, Buddy
01:46:48.985                             : en:The Light Is on You
01:52:50.430                             : en:In the Name of God
01:55:17.535                             : en:First Visitor
01:58:11.125                             : en:Nobody's Innocent
02:01:50.594                             : en:End Credits

x264 [info]: frame I:1286 Avg QP:15.79 size:195280
x264 [info]: frame P:44618 Avg QP:18.12 size: 89573
x264 [info]: frame B:138667 Avg QP:20.32 size: 45672
pb.wtf



Скачать Совокупность лжи через торрент http://i67.fastpic.ru/big/2016/0106/29/75c487f05a0e30dfa4d07e45ce4ffd29.png Скачать фильм Совокупность лжи через торрент бесплантно в хорошем качестве Описание:ЦРУ охотится на руководителя серии террористических атак. Роджер Феррис является агентом национальной разведки, он перемещается по ... 10 10 6
Info! Золотая раздача, скачанное не засчитывается.
Торрент: Зарегистрирован [2016-01-06 18:39] · скачан: 208 раз
Статус: √ проверено
Размер: 12.73 GB
Как cкачать? Как скачать Совокупность лжи через торрент | qTorrent

% Раздел Тема Автор DL S | L
Фильмы (WEB-DL 720p, 1080p) [ 16.05 GB ] Совокупность лжи / Body of Lies [2008 военный WEB-DL 1080p ] [Open Matte] Dub+MVO+4xAVO sheker187 Скачать
1 | 0
Фильмы [HD 720p, 1080p] (Хороший звук DUB, MVO) [ 7.76 GB ] Совокупность лжи / Body of Lies [2008 BDRip 720p от _denis_100 / NNNB] DUB DVO 3xAVO _denis_100 Скачать
1 | 0

28-11-2019 20:33  

Отключить всю рекламу на сайте

06-01-2016 19:12 Совокупность лжи Скачать торрент  

Я конечно благодарен Вам за релизы... Но почему бы звуковые дорожки не раздавать отдельными файлами?
К примеру я сразу вырезаю все дорожки, кроме дубляжа , чтоб уменьшить размер и залить на телевизор для просмотра. На планшете с Атомом Z3735 это очень долго... Дома конечно это не занимает много времени на G3258@4400, а на вахте уто ужасно долго...pb.wtf



06-01-2016 23:30 Совокупность лжи Скачать торрент  

глянул на обложку. минут 5 отдуплял, что это за актер Боди Кроу, что с ДиКаприо снялсяpb.wtf



07-01-2016 16:17 Совокупность лжи Скачать торрент  

Рассел Кроу.pb.wtf



    Дорогой пользователь! Огромная просьба, поблагодарите релизера, оцените раздачу и оставьте свои комментарий, если Вы скачали Совокупность лжи через торрент бесплатно! Внесите свою лепту в развитие PiratBit!
    Комментировать посты могут только пользователи прошедшие не сложную регистрацию
    Показать сообщения:    

    Совокупность лжи через торрент
    Скачать бесплатно Совокупность лжи
    Совокупность лжи скачать торрент
    Совокупность лжи смотреть онлайн
    Cкачать фильм Совокупность лжи бесплатно
    Совокупность лжи скачать торрент в хорошем качестве
    Совокупность лжи смотреть онлайн бесплатно в хорошем качестве


    Вы не можете начинать темы
    Вы не можете отвечать на сообщения
    Вы не можете редактировать свои сообщения
    Вы не можете удалять свои сообщения
    Вы не можете голосовать в опросах
    Вы не можете прикреплять файлы к сообщениям
    Вы можете скачивать файлы