Ссылка на приватное зеркало всего за 1$. Внимание количество ограничено!!!

OK

1+1

iTunes

мы

OK

1

WEB-DLRip

Джокер

Пифагор

Ведьмак / The Witcher сериал

iTunes

ПШазам

ОК

Оно 2

iTunes

30
pack

Вам бонус

ВАЖНО

!!Акция!!

Alien_RageХит недели

RePack

Resident Evil 21

ИГРА 18+

pack

RePack

jed

RePack

fifa19

RePack

Assassins Creed: Odyssey

RePack

NEED FOR SPEED™ PAYBACK

4 сезон

9 сезон

Бесстыжие 9 сезон

Все сериалы

все сериалы на PB.wtf

RePack

FAR CRY 5
  

Визит / The Visit (М. Найт Шьямалан) [2015г., ужасы, триллер, HDRip] DUB Лицензия pb.wtf

Визит через торрент pb.wtf

Размер: 1.37 GB | Добавлен: 4 года назад | Торрент скачан:364 раза
Скачать  

06-01-2016 21:36 Визит Скачать торрент  

Визит / The Visit««Любовь родственников не знает предела»»
Год выпуска: 2015
Страна: США / Blinding Edge Pictures, Blumhouse Productions
Жанр: ужасы, триллер
Продолжительность: 01:34:01

  • Перевод: Дубляж - [Лицензия]
  • Оригинальная аудиодорожка: Нет

Режиссер: М. Найт Шьямалан
В ролях: Оливия ДеДжонг (Becca), Эд Оксенбульд (Tyler), Дианна Данаган (Nana), Питер МакРобби (Pop Pop), Кэтрин Хан (Mom), Селия Кинэн-Болджер (Stacey), Самуэль Стриклен (Conductor), Патрик Дарро (Dr. Sam), Хорхе Кордова (Miguel), Стив Аннан (Man on the Street), Бенджамин Кейнс (Dad), Оушен Джеймс (Young Becca)
Описание: Много лет назад она бежала из родительского дома без оглядки и с тех пор старалась не вспоминать события той самой ночи. Теперь у нее уже взрослые дети. Однажды они получают приглашения от бабушки и дедушки, которых никогда не видели прежде, и решают нанести им визит.




  • Тип релиза: HDRip
  • Формат: AVI
  • Видео кодек: XviD | Аудио кодек: AC3
  • Видео: XviD, 720x384 (1.875), 1623 kbps, 23,976 fps, 0,245 bpp
  • Аудио: AC3 / 5.1 / 48 kHz / 448 kbps / 16 bit
  • Cэмпл: скачать
General
Complete name : C:\торрент\B1Z1TT.2O15.D.HDRip.14OOMB.avi
Format : AVI
Format/Info : Audio Video Interleave
File size : 1.37 GiB
Duration : 1h 34mn
Overall bit rate : 2 081 Kbps
Writing application : VirtualDubMod 1.5.10.2 (build 2540/release)
Writing library : VirtualDubMod build 2540/release

Video
ID : 0
Format : MPEG-4 Visual
Format profile : Advanced Simple@L5
Format settings, BVOP : 2
Format settings, QPel : No
Format settings, GMC : No warppoints
Format settings, Matrix : Custom
Codec ID : XVID
Codec ID/Hint : XviD
Duration : 1h 34mn
Bit rate : 1 624 Kbps
Width : 720 pixels
Height : 384 pixels
Display aspect ratio : 1.875
Frame rate : 23.976 fps
Color space : YUV
Chroma subsampling : 4:2:0
Bit depth : 8 bits
Scan type : Progressive
Compression mode : Lossy
Bits/(Pixel*Frame) : 0.245
Stream size : 1.07 GiB (78%)
Writing library : XviD 1.2.1 (UTC 2008-12-04)

Audio
ID : 1
Format : AC-3
Format/Info : Audio Coding 3
Mode extension : CM (complete main)
Codec ID : 2000
Duration : 1h 33mn
Bit rate mode : Constant
Bit rate : 448 Kbps
Channel(s) : 6 channels
Channel positions : Front: L C R, Side: L R, LFE
Sampling rate : 48.0 KHz
Bit depth : 16 bits
Compression mode : Lossy
Stream size : 301 MiB (22%)
Alignment : Split accross interleaves
Interleave, duration : 42 ms (1.00 video frame)
Interleave, preload duration : 500 ms
pb.wtf



Скачать Визит через торрент http://i1.imageban.ru/out/2015/12/19/a5e0ac955ac72a27c06f4dbb5b10cae4.jpg Скачать фильм Визит через торрент бесплантно в хорошем качестве Описание: Много лет назад она бежала из родительского дома без оглядки и с тех пор старалась не вспоминать события той самой ночи. Теперь у ... 9.4 10 19
Info! Золотая раздача, скачанное не засчитывается.
Торрент: Зарегистрирован [2016-01-06 21:36] · скачан: 364 раз
Статус: √ проверено
Размер: 1.37 GB
Как cкачать? Как скачать Визит через торрент | qTorrent

% Раздел Тема Автор DL S | L
Фильмы [HD 720p, 1080p] (Хороший звук DUB, MVO) [ 4.22 GB ] Визит / The Visit [2015 ВDRip 720р] DUB diletant Скачать
1 | 0
Фильмы 2015 [DVDrip, WEB-DLRip, HDrip] [ 1.46 GB ] Визит / The Visit [2015 BDRip-AVC от sokol_ok] DUB sokol_ok Скачать
2 | 0
Фильмы 2015 [DVDrip, WEB-DLRip, HDrip] [ 2.18 GB ] Визит / The Visit [2015 BDRip-AVC от sokol_ok] DUB sokol_ok Скачать
2 | 0
Фильмы 2015 [DVDrip, WEB-DLRip, HDrip] [ 2.18 GB ] Визит / The Visit [2015 BDRip-AVC] DUB potroks Скачать
1 | 0
Фильмы 2015 [DVDrip, WEB-DLRip, HDrip] [ 1.46 GB ] Визит / The Visit [2015 BDRip] DUB Twi7ter Скачать
1 | 0
Фильмы 2015 [DVDrip, WEB-DLRip, HDrip] [ 1.46 GB ] Визит / The Visit [2015 BDRip-AVC] DUB potroks Скачать
1 | 0

28-11-2019 20:33  

Отключить всю рекламу на сайте

07-01-2016 20:20 Визит Скачать торрент  

Фильм приятно удивил, местами страшный, местами смешной, с достаточно захватывающим сюжетом и неожиданной концовкой. Один раз можно глянуть.pb.wtf



25-08-2016 18:58 Визит Скачать торрент  

очень крутой фильмец !!!!!!!!!!!!!!!!!!!!!!!!!!!!pb.wtf



    Дорогой пользователь! Огромная просьба, поблагодарите релизера, оцените раздачу и оставьте свои комментарий, если Вы скачали Визит через торрент бесплатно! Внесите свою лепту в развитие PiratBit!
    Комментировать посты могут только пользователи прошедшие не сложную регистрацию
    Показать сообщения:    

    Визит через торрент
    Скачать бесплатно Визит
    Визит скачать торрент
    Визит смотреть онлайн
    Cкачать фильм Визит бесплатно
    Визит скачать торрент в хорошем качестве
    Визит смотреть онлайн бесплатно в хорошем качестве


    Вы не можете начинать темы
    Вы не можете отвечать на сообщения
    Вы не можете редактировать свои сообщения
    Вы не можете удалять свои сообщения
    Вы не можете голосовать в опросах
    Вы не можете прикреплять файлы к сообщениям
    Вы можете скачивать файлы