Ссылка на приватное зеркало всего за 1$. Внимание количество ограничено!!!

OK

1+1

iTunes

мы

OK

1

WEB-DLRip

Джокер

Пифагор

Ведьмак / The Witcher сериал

iTunes

ПШазам

ОК

Оно 2

iTunes

30
pack

Вам бонус

ВАЖНО

!!Акция!!

Alien_RageХит недели

RePack

Resident Evil 21

ИГРА 18+

pack

RePack

jed

RePack

fifa19

RePack

Assassins Creed: Odyssey

RePack

NEED FOR SPEED™ PAYBACK

4 сезон

9 сезон

Бесстыжие 9 сезон

Все сериалы

все сериалы на PB.wtf

RePack

FAR CRY 5
  

Голос улиц / Straight Outta Compton (Ф. Гэри Грей) [2015г., драма, биография, музыка, HDRip] Dub / [Лицензия / iTunes] pb.wtf

Голос улиц через торрент pb.wtf

Размер: 1.45 GB | Добавлен: 4 года назад | Торрент скачан:488 раз
Скачать  

06-01-2016 22:22 Голос улиц Скачать торрент  

Голос улиц / Straight Outta Compton««Самая опасная группа в мире»»
Год выпуска: 2015
Страна: США / Universal Pictures
Жанр: драма, биография, музыка
Продолжительность: 02:26:38

  • Перевод: Дубляж - [Лицензия / iTunes]
  • Оригинальная аудиодорожка: Нет

Режиссер: Ф. Гэри Грей
В ролях: О’Ши Джексон мл. (Ice Cube), Кори Хоукинс (Dr. Dre), Джейсон Митчелл (Eazy-E), Нил Браун мл. (Dj Yella), Элдис Ходж (MC Ren), Марлон Йэтс мл. (The D.O.C), Р. Маркус Тейлор (Suge Knight), Карра Паттерсон (Tomica), Александра Шипп (Kim), Пол Джаматти (Jerry Heller), Елена Гуд (Nicole), Кит Пауэрс (Tyree)
Описание: История группы N.W.A. из Комптона, штат Калифорния, которая в середине 1980-х произвела революцию в хип-хоп музыке.




  • Тип релиза: HDRip
  • Формат: AVI
  • Видео кодек: XviD | Аудио кодек: AC3
  • Видео: XviD, 720x304 (2.35:1), 1026 kbps, 23,976 fps, 0,196 bpp
  • Аудио:AC3 / 5.1 / 48 kHz / 384 kbps / 16 bit:
  • Сэмпл: скачать
General
Complete name : C:\торрент\G0l0C.UL1c.2015.D.HDRip.1.46GB.avi
Format : AVI
Format/Info : Audio Video Interleave
File size : 1.45 GiB
Duration : 2h 26mn
Overall bit rate : 1 420 Kbps
Writing application : VirtualDubMod 1.5.10.2 (build 2540/release)
Writing library : VirtualDubMod build 2540/release

Video
ID : 0
Format : MPEG-4 Visual
Format profile : Advanced Simple@L5
Format settings, BVOP : 2
Format settings, QPel : No
Format settings, GMC : No warppoints
Format settings, Matrix : Default (MPEG)
Codec ID : XVID
Codec ID/Hint : XviD
Duration : 2h 26mn
Bit rate : 1 027 Kbps
Width : 720 pixels
Height : 304 pixels
Display aspect ratio : 2.35:1
Frame rate : 23.976 fps
Color space : YUV
Chroma subsampling : 4:2:0
Bit depth : 8 bits
Scan type : Progressive
Compression mode : Lossy
Bits/(Pixel*Frame) : 0.196
Stream size : 1.05 GiB (72%)
Writing library : XviD 1.2.1 (UTC 2008-12-04)

Audio
ID : 1
Format : AC-3
Format/Info : Audio Coding 3
Mode extension : CM (complete main)
Codec ID : 2000
Duration : 2h 26mn
Bit rate mode : Constant
Bit rate : 384 Kbps
Channel(s) : 6 channels
Channel positions : Front: L C R, Side: L R, LFE
Sampling rate : 48.0 KHz
Bit depth : 16 bits
Compression mode : Lossy
Delay relative to video : 2ms
Stream size : 403 MiB (27%)
Alignment : Split accross interleaves
Interleave, duration : 42 ms (1.00 video frame)
Interleave, preload duration : 500 ms
pb.wtf



Скачать Голос улиц через торрент http://i75.fastpic.ru/big/2016/0107/4e/c01ff201ac09cc0616df2ba947e4654e.jpg Скачать фильм Голос улиц через торрент бесплантно в хорошем качестве Описание: История группы N.W.A. из Комптона, штат Калифорния, которая в середине 1980-х произвела революцию в хип-хоп ... 9.9 10 15
Info! Золотая раздача, скачанное не засчитывается.
Торрент: Зарегистрирован [2016-01-06 22:22] · скачан: 488 раз
Статус: √ проверено
Размер: 1.45 GB
Как cкачать? Как скачать Голос улиц через торрент | qTorrent

% Раздел Тема Автор DL S | L
Ultra HD (UHD: 2K, 4K, 8K) — видео сверхвысокой чёткости [ 59.64 GB ] Голос улиц / Straight Outta Compton [2015 биография история UHD BDRemux 2160p] sheker187 Скачать
1 | 0
Фильмы [HD 720p, 1080p] (Хороший звук DUB, MVO) [ 7.76 GB ] Голос улиц / Straight Outta Compton [2015 биография музыка BDRip 1080p] DUB bober100 Скачать
1 | 1
Фильмы (Blu-ray, BD-Remux, HDDVD) [ 46.24 GB ] Голос улиц / Straight Outta Compton [2015 биография музыка Blu-ray] - [ / Театральная версия] Игорян777 Скачать
1 | 0
Фильмы 2015 [DVDrip, WEB-DLRip, HDrip] [ 2.91 GB ] Голос улиц / Straight Outta Compton [2015 биография музыка BDRip-AVC от sokol_ok] [Театральная версия] DUB sokol_ok Скачать
1 | 0
R.G. Resident & PiratVoice - Фильмы, Видео [ 2.17 GB ] Голос улиц / Straight Outta Compton [2015 биография музыка HDRip-AVC ] От R.G.Resident White Smoke Скачать
1 | 0
Фильмы [HD 720p, 1080p] (Хороший звук DUB, MVO) [ 6.52 GB ] Голос улиц / Straight Outta Compton [2015 биография музыка BDRip 720p - [ / Театральная версия] Ворон Скачать
1 | 0
Фильмы 2015 [DVDrip, WEB-DLRip, HDrip] [ 1.46 GB ] Голос улиц / Straight Outta Compton [2015 биография музыка BDRip-AVC от sokol_ok] [Театральная версия] DUB sokol_ok Скачать
1 | 0

28-11-2019 20:33  

Отключить всю рекламу на сайте

06-01-2016 22:30 Голос улиц Скачать торрент  

Супер! Наконец то, только бы еще перевод бы "правильный" pb.wtf



06-01-2016 22:56 Голос улиц Скачать торрент  

720р быpb.wtf



06-01-2016 23:42 Голос улиц Скачать торрент  

07-01-2016 00:58 Голос улиц Скачать торрент  

Вот Дилетант, жить тебе вечно, за такие раздачи.
Огромное тебе спасибо мужик, прям порадовал в эти угрюмые серые дни) pb.wtf



07-01-2016 06:02 Голос улиц Скачать торрент  

Давно хотел посмотреть,огромное спасибо! pb.wtf



07-01-2016 06:05 Голос улиц Скачать торрент  

DeeMan писал(а):

Супер! Наконец то, только бы еще перевод бы "правильный"

Его и ждалиpb.wtf



    Дорогой пользователь! Огромная просьба, поблагодарите релизера, оцените раздачу и оставьте свои комментарий, если Вы скачали Голос улиц через торрент бесплатно! Внесите свою лепту в развитие PiratBit!
    Комментировать посты могут только пользователи прошедшие не сложную регистрацию
    Показать сообщения:    

    Голос улиц через торрент
    Скачать бесплатно Голос улиц
    Голос улиц скачать торрент
    Голос улиц смотреть онлайн
    Cкачать фильм Голос улиц бесплатно
    Голос улиц скачать торрент в хорошем качестве
    Голос улиц смотреть онлайн бесплатно в хорошем качестве


    Вы не можете начинать темы
    Вы не можете отвечать на сообщения
    Вы не можете редактировать свои сообщения
    Вы не можете удалять свои сообщения
    Вы не можете голосовать в опросах
    Вы не можете прикреплять файлы к сообщениям
    Вы можете скачивать файлы