Ссылка на приватное зеркало нашего сайта всего за 1$. Внимание количество ограничено!!!

2 сезон

iTunes

1 сезон

1

2 сезон

2 сезон

iTunes

1 сезон

RePack

30

Ultimate

ВАЖНО

ИГРА 18+

pack

RePack

MK11
pack

Забери бонус

RePack

jed

!!Акция!!

Alien_Rage

RePack

fifa19

RePack

Assassins Creed: Odyssey

RePack

NEED FOR SPEED™ PAYBACK

4 сезон

9 сезон

Бесстыжие 9 сезон

Все сериалы

все сериалы на PB.wtf

RePack

FAR CRY 5
  

Война и мир / War and Peace / Сезон: 1 / Серии 1-6 из 6 (Том Харпер) [2016 г., драма, мелодрама, военный, история, WEB-DL 1080p] MVO NewStudio pb.wtf

Война и мир через торрент pb.wtf

Размер: 17.48 GB | Добавлен: 4 года 9 мес. назад | Торрент скачан:166 раз
Скачать  

06-01-2016 22:41 Война и мир Скачать торрент  

Война и мир / War and Peace
Год выпуска: 2016

Страна: США, Великобритания

Жанр: драма, мелодрама, военный, история

Продолжительность: ~ 60 мин. серия

Перевод: Профессиональный многоголосый NewStudio

Режиссер: Том Харпер

Продюссер: Эндрю Дэвис, Martin Heriot, Бетан Джонс

Сценарий: Эндрю Дэвис, Лев Толстой

Премьера в мире: 3 января 2016

IMDB


В ролях: Анейрин Барнард, Пол Дано, Лили Джеймс, Джеймс Нортон, Оливия Росс, Рори Кинэн, Гийом Форе, Дэвид Куилтер, Кит Коннор, Отто Фаррант

Описание: Действие сериала развивается в России XIX века, охватывая период с 1805 по 1812 годы. В основу сюжета положен роман Льва Толстого "Война и мир", основное внимание сфокусировано на судьбах Пьера Безухова, Андрея Болконского и Наташи Ростовой.

Качество: WEB-DL 1080p
Формат: MKV
Видео кодек: AVC
Аудио кодек: AC3
Видео: Видео: H.264, 1912x1068 / 1912x1072, 25.000 fps, 5 059 kbps, 0.099 bit/pixel
Аудио#1: Аудио №1: AC3, 48 kHz, 6 ch, 384 kbps [NewStudio]
Аудио#2: Аудио №2: AC3, 48 kHz, 6 ch, 384 kbps [Original]
General
Unique ID : 239348827938878003865156648462247105897 (0xB410E85124AA54E59F3970B97D9D9569)
Complete name : D:\Internet\Download\Torrent\War.and.Peace.2016.s01.WEBDL.1080p.NewStudio\War.and.Peace.2016.s01e01.WEBDL.1080p.NewStudio.TV.mkv
Format : Matroska
Format version : Version 4 / Version 2
File size : 2.47 GiB
Duration : 59mn 26s
Overall bit rate : 5 945 Kbps
Encoded date : UTC 2016-01-07 21:12:30
Writing application : mkvmerge v8.2.0 ('World of Adventure') 32bit
Writing library : libebml v1.3.1 + libmatroska v1.4.2
DURATION : 00:59:26.016000000
NUMBER_OF_FRAMES : 111438
NUMBER_OF_BYTES : 171168768
_STATISTICS_WRITING_APP : mkvmerge v8.2.0 ('World of Adventure') 32bit
_STATISTICS_WRITING_DATE_UT : 2016-01-07 21:12:30
_STATISTICS_TAGS : BPS DURATION NUMBER_OF_FRAMES NUMBER_OF_BYTES

Video
ID : 1
Format : AVC
Format/Info : Advanced Video Codec
Format profile : High@L4.0
Format settings, CABAC : Yes
Format settings, ReFrames : 4 frames
Codec ID : V_MPEG4/ISO/AVC
Duration : 59mn 26s
Bit rate : 5 059 Kbps
Width : 1 912 pixels
Height : 1 068 pixels
Display aspect ratio : 16:9
Frame rate mode : Constant
Frame rate : 25.000 fps
Color space : YUV
Chroma subsampling : 4:2:0
Bit depth : 8 bits
Scan type : Progressive
Bits/(Pixel*Frame) : 0.099
Stream size : 2.10 GiB (85%)
Language : English
Default : Yes
Forced : No
Color primaries : BT.709
Transfer characteristics : BT.709
Matrix coefficients : BT.709
Color range : Limited

Audio #1
ID : 2
Format : AC-3
Format/Info : Audio Coding 3
Mode extension : CM (complete main)
Format settings, Endianness : Big
Codec ID : A_AC3
Duration : 59mn 26s
Bit rate mode : Constant
Bit rate : 384 Kbps
Channel(s) : 6 channels
Channel positions : Front: L C R, Side: L R, LFE
Sampling rate : 48.0 KHz
Bit depth : 16 bits
Compression mode : Lossy
Stream size : 163 MiB (6%)
Title : NewStudio.TV
Language : Russian
Default : Yes
Forced : No

Audio #2
ID : 3
Format : AC-3
Format/Info : Audio Coding 3
Mode extension : CM (complete main)
Format settings, Endianness : Big
Codec ID : A_AC3
Duration : 59mn 26s
Bit rate mode : Constant
Bit rate : 384 Kbps
Channel(s) : 6 channels
Channel positions : Front: L C R, Side: L R, LFE
Sampling rate : 48.0 KHz
Bit depth : 16 bits
Compression mode : Lossy
Stream size : 163 MiB (6%)
Language : English
Default : No
Forced : No
скриншот   скриншот   скриншот  




pb.wtf



Скачать Война и мир через торрент http://pic.kartinco.top/images/11/wwsfu.jpg Скачать фильм Война и мир через торрент бесплантно в хорошем качестве Описание: Действие сериала развивается в России XIX века, охватывая период с 1805 по 1812 годы. В основу сюжета положен роман Льва Толстого ... 9.9 10 15
Info! Серебряная раздача, засчитывается только 50% скачанного.
Торрент: Зарегистрирован [2016-02-16 22:52] · скачан: 166 раз
Статус: √ проверено
Размер: 17.48 GB
Как cкачать? Как скачать Война и мир через торрент | qTorrent

% Раздел Тема Автор DL S | L
Зарубежные сериалы [ 4.39 GB ] Война и мир / War and Peace / Сезон: 1 / Серии 1-6 из 6 [2016 военный история WEBDLRip] MVO NewStudio diletant Скачать
1 | 0


Последний раз редактировалось: demorfeus (2016-02-16 22:52), всего редактировалось 8 раз(а)

28-11-2019 20:33  

Отключить всю рекламу на сайте

    Дорогой пользователь! Огромная просьба, поблагодарите релизера, оцените раздачу и оставьте свои комментарий, если Вы скачали Война и мир через торрент бесплатно! Внесите свою лепту в развитие PiratBit!
    Комментировать посты могут только пользователи прошедшие не сложную регистрацию
    Показать сообщения:    

    Война и мир через торрент
    Скачать бесплатно Война и мир
    Война и мир скачать торрент
    Война и мир смотреть онлайн
    Cкачать фильм Война и мир бесплатно
    Война и мир скачать торрент в хорошем качестве
    Война и мир смотреть онлайн бесплатно в хорошем качестве


    Вы не можете начинать темы
    Вы не можете отвечать на сообщения
    Вы не можете редактировать свои сообщения
    Вы не можете удалять свои сообщения
    Вы не можете голосовать в опросах
    Вы не можете прикреплять файлы к сообщениям
    Вы можете скачивать файлы