Ссылка на приватное зеркало нашего сайта всего за 1$. Внимание количество ограничено!!!

2 сезон

iTunes

iTunes

1

iTunes

iTunes

iTunes

WEBRip

iTunes

30
pack

Забери бонус

ВАЖНО

!!Акция!!

Alien_RageХит недели

RePack

RESIDENT EVIL 3: NEMESIS REMAKE

ИГРА 18+

pack

RePack

jed

!!Акция!!

Alien_Rage

RePack

fifa19

RePack

Assassins Creed: Odyssey

RePack

NEED FOR SPEED™ PAYBACK

4 сезон

9 сезон

Бесстыжие 9 сезон

Все сериалы

все сериалы на PB.wtf

RePack

FAR CRY 5
  

Визит / The Visit (М. Найт Шьямалан / M. Night Shyamalan) [2015, ужасы, триллер, BDRip-AVC от potroks] DUB Лицензия pb.wtf

Визит через торрент pb.wtf

Размер: 2.18 GB | Добавлен: 4 года 8 мес. назад | Торрент скачан:1432 раза
Скачать  

07-01-2016 01:32 Визит Скачать торрент  

Визит / The Visit
«Любовь родственников не знает предела»
Год выпуска: 2015
Страна: США / Blinding Edge Pictures, Blumhouse Productions
Жанр: ужасы, триллер
Продолжительность: 01:34:00
Перевод: Дубляж [Лицензия]
Субтитры: английские (Full), английские (SDH)
Навигация по главам: есть
Режиссер: М. Найт Шьямалан / M. Night Shyamalan
В ролях:

Оливия ДеДжонг (Becca), Эд Оксенбульд (Tyler), Дианна Данаган (Nana), Питер МакРобби (Pop Pop), Кэтрин Хан (Mom), Селия Кинэн-Болджер (Stacey), Самуэль Стриклен (Conductor), Патрик Дарро (Dr. Sam), Хорхе Кордова (Miguel), Стив Аннан (Man on the Street), Бенджамин Кейнс (Dad), Оушен Джеймс (Young Becca)
Описание: Много лет назад она бежала из родительского дома без оглядки и с тех пор старалась не вспоминать события той самой ночи. Теперь у нее уже взрослые дети. Однажды они получают приглашения от бабушки и дедушки, которых никогда не видели прежде, и решают нанести им визит.

Качество: BDRip-AVC
Формат: MKV
Видео кодек: AVC
Аудио кодек: AC3
Видео: 1060x572 (1.854), 2424 kbps, 23,976 fps, 0.167 bit/pixel
Аудио#1: AC3 / 5.1 / 48 kHz / 448 kbps / 16 bit | RUS
Аудио#2: AC3 / 5.1 / 48 kHz / 448 kbps / 16 bit | ENG

Релиз группы:
Автор рипа: potroks

Код:

General
Unique ID                   : 243281000923952964038667587194928369252 (0xB7063769CA851AC2BEDE943AA5A60E64)
Complete name               : Vizit.2015.DUAL.BDRip.x264.-HELLYWOOD.mkv
Format                      : Matroska
Format version              : Version 4 / Version 2
File size                   : 2.18 GiB
Duration                    : 1h 34mn
Overall bit rate            : 3 320 Kbps
Movie name                  : The Visit (2015) - HELLYWOOD
Encoded date                : UTC 2010-02-22 21:41:31
Writing application         : mkvmerge v5.8.0 ('No Sleep / Pillow') built on Sep 30 2012 10:57:14
Writing library             : libebml v1.3.0 + libmatroska v1.4.0

Video
ID                          : 1
Format                      : AVC
Format/Info                 : Advanced Video Codec
Format profile              : High@L4.1
Format settings, CABAC      : Yes
Format settings, ReFrames   : 9 frames
Codec ID                    : V_MPEG4/ISO/AVC
Duration                    : 1h 34mn
Bit rate                    : 2 424 Kbps
Width                       : 1 060 pixels
Height                      : 572 pixels
Display aspect ratio        : 1.85:1
Frame rate mode             : Constant
Frame rate                  : 23.976 (24000/1001) fps
Color space                 : YUV
Chroma subsampling          : 4:2:0
Bit depth                   : 8 bits
Scan type                   : Progressive
Bits/(Pixel*Frame)          : 0.167
Stream size                 : 1.55 GiB (71%)
Title                       : potroks
Writing library             : x264 core 128 r2216M 198a7ea
Encoding settings           : cabac=1 / ref=10 / deblock=1:-2:-2 / analyse=0x3:0x133 / me=umh / subme=11 / psy=1 / psy_rd=1.00:0.05 / mixed_ref=1 / me_range=48 / chroma_me=1 / trellis=2 / 8x8dct=1 / cqm=0 / deadzone=21,11 / fast_pskip=0 / chroma_qp_offset=-3 / threads=10 / lookahead_threads=1 / sliced_threads=0 / nr=0 / decimate=1 / interlaced=0 / bluray_compat=0 / constrained_intra=0 / bframes=11 / b_pyramid=1 / b_adapt=2 / b_bias=0 / direct=3 / weightb=1 / open_gop=0 / weightp=2 / keyint=250 / keyint_min=23 / scenecut=40 / intra_refresh=0 / rc_lookahead=40 / rc=2pass / mbtree=0 / bitrate=2424 / ratetol=1.0 / qcomp=0.70 / qpmin=0 / qpmax=69 / qpstep=4 / cplxblur=20.0 / qblur=0.5 / vbv_maxrate=62500 / vbv_bufsize=62500 / nal_hrd=none / ip_ratio=1.40 / pb_ratio=1.30 / aq=1:0.80
Language                    : English
Default                     : Yes
Forced                      : No

Audio #1
ID                          : 2
Format                      : AC-3
Format/Info                 : Audio Coding 3
Mode extension              : CM (complete main)
Format settings, Endianness : Big
Codec ID                    : A_AC3
Duration                    : 1h 34mn
Bit rate mode               : Constant
Bit rate                    : 448 Kbps
Channel(s)                  : 6 channels
Channel positions           : Front: L C R, Side: L R, LFE
Sampling rate               : 48.0 KHz
Frame rate                  : 31.250 fps (1536 spf)
Compression mode            : Lossy
Stream size                 : 301 MiB (13%)
Title                       : Dub | DD 5.1 @ 448 kbps - R5
Language                    : Russian
Default                     : Yes
Forced                      : No

Audio #2
ID                          : 3
Format                      : AC-3
Format/Info                 : Audio Coding 3
Mode extension              : CM (complete main)
Format settings, Endianness : Big
Codec ID                    : A_AC3
Duration                    : 1h 34mn
Bit rate mode               : Constant
Bit rate                    : 448 Kbps
Channel(s)                  : 6 channels
Channel positions           : Front: L C R, Side: L R, LFE
Sampling rate               : 48.0 KHz
Frame rate                  : 31.250 fps (1536 spf)
Compression mode            : Lossy
Stream size                 : 301 MiB (13%)
Title                       : Original | DD 5.1 @ 448 kbps
Language                    : English
Default                     : No
Forced                      : No

Text #1
ID                          : 4
Format                      : UTF-8
Codec ID                    : S_TEXT/UTF8
Codec ID/Info               : UTF-8 Plain Text
Title                       : Full
Language                    : English
Default                     : No
Forced                      : No

Text #2
ID                          : 5
Format                      : UTF-8
Codec ID                    : S_TEXT/UTF8
Codec ID/Info               : UTF-8 Plain Text
Title                       : SDH
Language                    : English
Default                     : No
Forced                      : No

Menu
00:00:00.000                : en:(01)00:00:00:000
00:02:51.921                : en:(02)00:02:51:921
00:06:38.356                : en:(03)00:06:38:356
00:11:08.709                : en:(04)00:11:08:709
00:17:11.947                : en:(05)00:17:11:947
00:21:39.798                : en:(06)00:21:39:798
00:25:45.752                : en:(07)00:25:45:752
00:29:44.824                : en:(08)00:29:44:824
00:34:24.854                : en:(09)00:34:24:854
00:40:48.571                : en:(10)00:40:48:571
00:44:42.012                : en:(11)00:44:42:012
00:48:16.393                : en:(12)00:48:16:393
00:52:34.734                : en:(13)00:52:34:734
00:57:08.383                : en:(14)00:57:08:383
01:00:54.108                : en:(15)01:00:54:108
01:05:17.163                : en:(16)01:05:17:163
01:09:08.185                : en:(17)01:09:08:185
01:13:38.372                : en:(18)01:13:38:372
01:23:58.908                : en:(19)01:23:58:908
01:28:54.037                : en:(20)01:28:54:037

pb.wtf



Скачать Визит через торрент http://i76.fastpic.ru/big/2016/0107/9e/a982a4703929e0ab7e660beeeb186b9e.png Скачать фильм Визит через торрент бесплантно в хорошем качестве Описание: Много лет назад она бежала из родительского дома без оглядки и с тех пор старалась не вспоминать события той самой ночи. Теперь ... 8.9 10 21
Info! Золотая раздача, скачанное не засчитывается.
Торрент: Зарегистрирован [2016-01-07 01:32] · скачан: 1 432 раз
Статус: √ проверено
Размер: 2.18 GB
Как cкачать? Как скачать Визит через торрент | qTorrent

% Раздел Тема Автор DL S | L
Фильмы 2015 [DVDrip, WEB-DLRip, HDrip] [ 1.37 GB ] Визит / The Visit [2015 HDRip] DUB diletant Скачать
1 | 0
Фильмы [HD 720p, 1080p] (Хороший звук DUB, MVO) [ 4.22 GB ] Визит / The Visit [2015 ВDRip 720р] DUB diletant Скачать
1 | 0
Фильмы 2015 [DVDrip, WEB-DLRip, HDrip] [ 1.46 GB ] Визит / The Visit [2015 BDRip-AVC от sokol_ok] DUB sokol_ok Скачать
2 | 0
Фильмы 2015 [DVDrip, WEB-DLRip, HDrip] [ 2.18 GB ] Визит / The Visit [2015 BDRip-AVC от sokol_ok] DUB sokol_ok Скачать
2 | 0
Фильмы 2015 [DVDrip, WEB-DLRip, HDrip] [ 1.46 GB ] Визит / The Visit [2015 BDRip] DUB Twi7ter Скачать
1 | 0
Фильмы 2015 [DVDrip, WEB-DLRip, HDrip] [ 1.46 GB ] Визит / The Visit [2015 BDRip-AVC] DUB potroks Скачать
1 | 0

28-11-2019 20:33  

Отключить всю рекламу на сайте

07-01-2016 06:09 Визит Скачать торрент  

Классный фильмpb.wtf



07-01-2016 14:00 Визит Скачать торрент  

Скажу сразу, фильм к просмотру обязателен.
Давно я не видел триллеры которые сперва нагоняют крипоты, а потом и добивают неожиданным поворотом при котором я сидел с лицом " да ну на*уй ". Если в паронормалке уже все заезженно и пережевано по десять раз, и там уже и так все понятно, и уже даже не капельки не жутко, то тут будто новый уровень, всем смотреть.pb.wtf



07-01-2016 18:36 Визит Скачать торрент  

Отличный фильм!pb.wtf



07-01-2016 20:32 Визит Скачать торрент  

фильм не понравился ,тягомотный .да, развязка неожиданная но смотреть неинтересно было .pb.wtf



07-01-2016 23:10 Визит Скачать торрент  

Отличный триллер! Второй из двух по-настоящему стрёмных фильмов, вышедших в 2015м. Первый был "Оно".
Всякие синистеры-уинистеры и Шлёндеры - полный треш.pb.wtf



    Дорогой пользователь! Огромная просьба, поблагодарите релизера, оцените раздачу и оставьте свои комментарий, если Вы скачали Визит через торрент бесплатно! Внесите свою лепту в развитие PiratBit!
    Комментировать посты могут только пользователи прошедшие не сложную регистрацию
    Показать сообщения:    

    Визит через торрент
    Скачать бесплатно Визит
    Визит скачать торрент
    Визит смотреть онлайн
    Cкачать фильм Визит бесплатно
    Визит скачать торрент в хорошем качестве
    Визит смотреть онлайн бесплатно в хорошем качестве


    Вы не можете начинать темы
    Вы не можете отвечать на сообщения
    Вы не можете редактировать свои сообщения
    Вы не можете удалять свои сообщения
    Вы не можете голосовать в опросах
    Вы не можете прикреплять файлы к сообщениям
    Вы можете скачивать файлы