Death Stranding+DLC+АВТОАКТИВАЦИЯ

iTunes

iTunes

iTunes

1

iTunes

iTunes

iTunes

iTunes

iTunes

30
pack

$ от Little Big

ВАЖНО

!!Акция!!

Alien_RageХит недели

RePack

Resident Evil 21

ИГРА 18+

pack

RePack

jed

!!Акция!!

Alien_Rage

RePack

fifa19

RePack

Assassins Creed: Odyssey

RePack

NEED FOR SPEED™ PAYBACK

4 сезон

9 сезон

Бесстыжие 9 сезон

Все сериалы

все сериалы на PB.wtf

RePack

FAR CRY 5
  

Ужастики / Goosebumps (Роб Леттерман / Rob Letterman) [2015, США, Австралия, фэнтези, комедия, приключения, WEB-DL 1080p, Дубляж] iTunes pb.wtf

Ужастики через торрент pb.wtf

Размер: 3.49 GB | Добавлен: 4 года 6 мес. назад | Торрент скачан:910 раз
Скачать  

07-01-2016 01:44 Ужастики Скачать торрент  

Ужастики / Goosebumps
«Рассказы живы»


  • Год выпуска: 2015
  • Страна: США, Австралия
  • Жанр: фэнтези, комедия, приключения
  • Продолжительность: 01:43:17
  • Перевод: Дубляж - [Лицензия / iTunes]

  • Режиссер: Роб Леттерман / Rob Letterman
  • В ролях:

    Дилан Миннетт (Zach), Одейя Раш (Hannah), Эми Райан (Gale), Райан Ли (Champ), Джиллиан Белл (Lorraine), Джек Блэк (R. L. Stine / Slappy / Invisible Boy, озвучка), Кен Марино (Coach Carr), Холстон Сейдж (Taylor), Стивен Крюгер (Davidson), Кит А. Болден (Principal Garrison), Аманда Ланд (Officer Brooks), Тимоти С. Саймонс (Officer Stevens)


  • Кошмары бывают разные. Вечно голодные оборотни, плохо воспитанные зомби, агрессивные садовые гномы и даже гигантский неуравновешенный снежный человек...
    Все эти фантастические монстры и монстрики многие годы магическим образом удерживались на страницах знаменитых бестселлеров «Ужастики», пока по воле случая их не выпустили на свободу в реальный мир.
  • Рейтинг:



  • Качество: WEB-DL 1080p
  • Формат: :MKV
  • Видео кодек: AVC
  • Аудио кодек: AC3
  • Видео: 1920x794 (2.40:1), 4357 kbps, 23,976 fps, 0,119 bpp
  • Аудио: русский / 5.1 / 48 kHz / 384 kbps / 16 bit | [Лицензия / iTunes]|
  • Релиз от: GEKADOL

    Код:

    General
    Unique ID                                : 208716311413667392737182280105075102328 (0x9D054CA5B2E5E0209CBF5EEC7F835278)
    Complete name                            : G:\Yzhasyki.2015.D.WEB-DL.1080p.mkv
    Format                                   : Matroska
    Format version                           : Version 4 / Version 2
    File size                                : 3.49 GiB
    Duration                                 : 1h 43mn
    Overall bit rate                         : 4 838 Kbps
    Encoded date                             : UTC 2016-01-06 19:22:28
    Writing application                      : mkvmerge v8.3.0 ('Over the Horizon') 64bit
    Writing library                          : libebml v1.3.1 + libmatroska v1.4.2
    DURATION                                 : 01:43:17.792000000
    NUMBER_OF_FRAMES                         : 193681
    NUMBER_OF_BYTES                          : 297494016
    _STATISTICS_WRITING_APP                  : mkvmerge v8.3.0 ('Over the Horizon') 64bit
    _STATISTICS_WRITING_DATE_UTC             : 2016-01-06 19:22:28
    _STATISTICS_TAGS                         : BPS DURATION NUMBER_OF_FRAMES NUMBER_OF_BYTES

    Video
    ID                                       : 1
    Format                                   : AVC
    Format/Info                              : Advanced Video Codec
    Format profile                           : High@L4.0
    Format settings, CABAC                   : Yes
    Format settings, ReFrames                : 5 frames
    Codec ID                                 : V_MPEG4/ISO/AVC
    Duration                                 : 1h 43mn
    Bit rate                                 : 4 357 Kbps
    Width                                    : 1 920 pixels
    Height                                   : 794 pixels
    Display aspect ratio                     : 2.40:1
    Frame rate                               : 23.976 fps
    Color space                              : YUV
    Chroma subsampling                       : 4:2:0
    Bit depth                                : 8 bits
    Scan type                                : Progressive
    Bits/(Pixel*Frame)                       : 0.119
    Stream size                              : 3.14 GiB (90%)
    Language                                 : English
    Default                                  : Yes
    Forced                                   : No
    Color primaries                          : BT.709-5, BT.1361, IEC 61966-2-4, SMPTE RP177
    Transfer characteristics                 : BT.709-5, BT.1361
    Matrix coefficients                      : BT.709-5, BT.1361, IEC 61966-2-4 709, SMPTE RP177

    Audio
    ID                                       : 2
    Format                                   : AC-3
    Format/Info                              : Audio Coding 3
    Mode extension                           : CM (complete main)
    Codec ID                                 : A_AC3
    Duration                                 : 1h 43mn
    Bit rate mode                            : Constant
    Bit rate                                 : 384 Kbps
    Channel(s)                               : 6 channels
    Channel positions                        : Front: L C R, Side: L R, LFE
    Sampling rate                            : 48.0 KHz
    Bit depth                                : 16 bits
    Compression mode                         : Lossy
    Stream size                              : 284 MiB (8%)
    Language                                 : Russian
    Default                                  : Yes
    Forced                                   : No

    Menu
    00:00:00.000                             : en:1
    00:05:08.000                             : en:2
    00:11:47.000                             : en:3
    00:17:54.000                             : en:4
    00:23:23.000                             : en:5
    00:31:52.000                             : en:6
    00:38:29.000                             : en:7
    00:44:36.000                             : en:8
    00:51:09.000                             : en:9
    00:57:27.000                             : en:10
    01:03:38.000                             : en:11
    01:06:34.000                             : en:12
    01:12:18.000                             : en:13
    01:20:01.000                             : en:14
    01:24:57.000                             : en:15
    01:31:09.000                             : en:16




    Скриншоты:



    pb.wtf



  • Скачать Ужастики через торрент http://i4.imageban.ru/out/2016/01/07/f63f63818d1e1cd482a8daae2f591ed9.jpg Скачать фильм Ужастики через торрент бесплантно в хорошем качестве qw.png Кошмары бывают разные. Вечно голодные оборотни, плохо воспитанные зомби, агрессивные садовые гномы и даже гигантский ... 9.4 10 34
    Info! Золотая раздача, скачанное не засчитывается.
    Торрент: Зарегистрирован [2016-01-07 01:44] · скачан: 910 раз
    Статус: √ проверено
    Размер: 3.49 GB
    Как cкачать? Как скачать Ужастики через торрент | qTorrent

    % Раздел Тема Автор DL S | L
    Фильмы 2018 [DVDrip, WEB-DLRip, HDrip] (DUB, MVO) [ 1.84 GB ] Ужастики 2: Беспокойный Хэллоуин / Goosebumps 2: Haunted Halloween [2018 BDRip-AVC] DUB +DUB [] bober100 Скачать
    1 | 0
    Ultra HD (UHD: 2K, 4K, 8K) — видео сверхвысокой чёткости [ 13.17 GB ] Ужастики 2: Беспокойный Хэллоуин / Goosebumps 2: Haunted Halloween [2018 UHD BDRip 2160p] DUB sheker187 Скачать
    1 | 0
    Фильмы (WEB-DL 720p, 1080p) [ 3.4 GB ] Ужастики 2: Беспокойный Хэллоуин / Goosebumps 2: Haunted Halloween [2018 WEB-DL 1080p] DUB bober100 Скачать
    1 | 0
    Фильмы (WEB-DL 720p, 1080p) [ 3.09 GB ] Ужастики 2: Беспокойный Хэллоуин / Goosebumps 2: Haunted Halloween [2018 WEB-DL 720p] DUB bober100 Скачать
    1 | 0
    R.G. Resident & PiratVoice - Фильмы, Видео [ 1.46 GB ] Ужастики / Goosebumps [2015 WEB-DLRip-AVC ] schultz Скачать
    1 | 0
    Фильмы 2015 [DVDrip, WEB-DLRip, HDrip] [ 1.41 GB ] Ужастики / Goosebumps [2015 BDRip] Dub Twi7ter Скачать
    1 | 0
    R.G. Resident & PiratVoice - Фильмы, Видео [ 6.52 GB ] Ужастики / Goosebumps [2015 BDRip 1080p ] schultz Скачать
    1 | 0

    28-11-2019 20:33  

    Отключить всю рекламу на сайте

    07-01-2016 17:21 Ужастики Скачать торрент  

    Дилан Миннетт повезло с фамилией pb.wtf



    08-01-2016 12:56 Ужастики Скачать торрент  

    Спасибо, хоть в праздники есть что глянуть, а то этот самы лучш день, не дождешься...)))pb.wtf



      Дорогой пользователь! Огромная просьба, поблагодарите релизера, оцените раздачу и оставьте свои комментарий, если Вы скачали Ужастики через торрент бесплатно! Внесите свою лепту в развитие PiratBit!
      Комментировать посты могут только пользователи прошедшие не сложную регистрацию
      Показать сообщения:    

      Ужастики через торрент
      Скачать бесплатно Ужастики
      Ужастики скачать торрент
      Ужастики смотреть онлайн
      Cкачать фильм Ужастики бесплатно
      Ужастики скачать торрент в хорошем качестве
      Ужастики смотреть онлайн бесплатно в хорошем качестве


      Вы не можете начинать темы
      Вы не можете отвечать на сообщения
      Вы не можете редактировать свои сообщения
      Вы не можете удалять свои сообщения
      Вы не можете голосовать в опросах
      Вы не можете прикреплять файлы к сообщениям
      Вы можете скачивать файлы