Всегда рабочее зеркало без VPN и Proxy просто перед .vidak.icu напиши любое слово или цифру, Пример http://5d5p.vidak.icu

Лицензия

MVO

1 сезон

1

1 сезон

iTunes

1 сезон

13

1 сезон

Deluxe

pack

Рекомендуем

Repack

30

ВАЖНО

RePack

MK11

RePack

jed

RePack

fifa19

RePack

RDR2

RePack

NEED FOR SPEED™ PAYBACK

Кинопоиск HD

6 сезон

 Острые козырьки 6 сезон

Все сериалы

все сериалы на PB.wtf

RePack

FAR CRY 5
  
Magnet ссылка

Афон. Восхождение (Элла Тухарели) [2016 г., документальный, DVB, Оригинальный] pb.wtf

Афон. Восхождение через торрент pb.wtf

Размер: 777 MB | Добавлен: 6 лет 7 мес. назад | Торрент скачан:32 раза
Смотреть онлайн Афон. Восхождение | Скачать    Ребята, помогите собрать деньги на оплату серверов!!!

07-01-2016 10:55 Афон. Восхождение Скачать торрент  

Афон. Восхождение

Год выпуска: 2016
Страна: Россия
Жанр: документальный
Продолжительность: 00:42:38
Перевод: Оригинальный

Режиссер: Элла Тухарели
Автор и ведущий: Аркадий Мамонтов

Описание: В 2016 году исполняется 1000 лет от первого письменного упоминания о существовании и деятельности на Святой Горе Афон древнерусского монастыря, через который осуществлялись духовные и культурные взаимосвязи между Русью и центром православного монашества и духовности на Афоне. С возрождением на Афоне Русского Свято-Пантелеимонова монастыря, возрождаются и утраченные когда-то традиции паломничества православных русских людей к святыням. Мы увидим жизнь Афона глазами русских паломников. Одно поколение паломников сменяет другое. Сколько тысяч человек прошло этим путем! Каждый из них повторял про себя "Господи, помилуй". Божья Матерь принимает всех: сильного и слабого, хорошего и плохого, паломника и туриста, любопытного и всезнающего. Подъем сюда, на эту вершину - не просто экстремальная прогулка - это восхождение к молитве, к истине, к Богу.

Качество: DVB
Формат: TS
Видео кодек: AVC
Аудио кодек: MP2
Видео: AVC, 720x576 (4:3), 25.000 fps, 2 227 Kbps (0.215 bit/pixel)
Аудио: MP2, 48.0 KHz, 2 ch, 192 Kbps, CBR (Russian)

Код:

Формат                                   : MPEG-TS
Размер файла                             : 777 Мбайт
Продолжительность                        : 42 м.
Режим общего битрейта                    : Переменный
Общий поток                              : 2547 Кбит/сек

Видео
Идентификатор                            : 1021 (0x3FD)
Идентификатор меню                       : 1020 (0x3FC)
Формат                                   : AVC
Формат/Информация                        : Advanced Video Codec
Профиль формата                          : [email protected]
Параметр CABAC формата                   : Да
Параметр ReFrames формата                : 3 кадра
Параметр GOP формата                     : M=4, N=28
Идентификатор кодека                     : 27
Продолжительность                        : 42 м.
Битрейт                                  : 2227 Кбит/сек
Ширина                                   : 720 пикселей
Высота                                   : 576 пикселей
Соотношение сторон                       : 4:3
Частота кадров                           : 25,000 кадров/сек
Стандарт вещания                         : Component
Цветовое пространство                    : YUV
Субдискретизация насыщенности            : 4:2:0
Битовая глубина                          : 8 бит
Тип развёртки                            : Прогрессивная
Порядок развёртки                        : Верхнее поле первое
Бит/(Пиксели*Кадры)                      : 0.215
Размер потока                            : 679 Мбайт (87%)
Цветовой диапазон                        : Limited
Основные цвета                           : BT.601 PAL
Характеристики трансфера                 : BT.470 System B, BT.470 System G
Коэффициенты матрицы                     : BT.601

Аудио
Идентификатор                            : 1022 (0x3FE)
Идентификатор меню                       : 1020 (0x3FC)
Формат                                   : MPEG Audio
Версия формата                           : Version 1
Профиль формата                          : Layer 2
Идентификатор кодека                     : 3
Продолжительность                        : 42 м.
Вид битрейта                             : Постоянный
Битрейт                                  : 192 Кбит/сек
Каналы                                   : 2 канала
Частота                                  : 48,0 КГц
Метод сжатия                             : С потерями
Задержка видео                           : 51 мс.
Размер потока                            : 58,6 Мбайт (8%)
Язык                                     : Russian


pb.wtf
Kкэп писал(а):

Размер файла: 777 Мбайт - Символично!



Скачать Афон. Восхождение через торрент http://i.imgur.com/sxFXhaU.png Скачать, смотреть онлайн Афон. Восхождение бесплантно в хорошем качестве Описание: В 2016 году исполняется 1000 лет от первого письменного упоминания о существовании и деятельности на Святой Горе Афон ... 10 10 5
Торрент: Зарегистрирован [2016-01-07 10:55] · скачан: 32 раз
Статус: √ проверено
Размер: 777 MB
Как cкачать? Как скачать Афон. Восхождение через торрент | UTorrent

28-11-2019 20:33  

Отключить вcю реклaмy на сайте

    Дорогой пользователь! Огромная просьба, поблагодарите релизера, оцените раздачу и оставьте свои комментарий, если Вы скачали Афон. Восхождение через торрент бесплатно!
    Комментировать посты могут только пользователи прошедшие не сложную регистрацию
    Показать сообщения:    

    Афон. Восхождение через торрент
    Скачать бесплатно Афон. Восхождение
    Афон. Восхождение скачать торрент
    Афон. Восхождение смотреть онлайн
    Cкачать фильм Афон. Восхождение бесплатно
    Афон. Восхождение скачать торрент в хорошем качестве
    Афон. Восхождение смотреть онлайн бесплатно в хорошем качестве


    Вы не можете начинать темы
    Вы не можете отвечать на сообщения
    Вы не можете редактировать свои сообщения
    Вы не можете удалять свои сообщения
    Вы не можете голосовать в опросах
    Вы не можете прикреплять файлы к сообщениям
    Вы можете скачивать файлы