Ссылка на приватное зеркало всего за 1$. Внимание количество ограничено!!!

OK

1+1

iTunes

мы

OK

1

WEB-DLRip

Джокер

Пифагор

Ведьмак / The Witcher сериал

iTunes

ПШазам

ОК

Оно 2

iTunes

30
pack

Вам бонус

ВАЖНО

!!Акция!!

Alien_RageХит недели

RePack

Resident Evil 21

ИГРА 18+

pack

RePack

jed

RePack

fifa19

RePack

Assassins Creed: Odyssey

RePack

NEED FOR SPEED™ PAYBACK

4 сезон

9 сезон

Бесстыжие 9 сезон

Все сериалы

все сериалы на PB.wtf

RePack

FAR CRY 5
  

Она испекла убийство: Загадка шоколадного печенья / Murder, She Baked: A Chocolate Chip Cookie Mystery (Марк Жан) [2015г., детектив, HDTVRip] Профессиональный многоголосый [Чистый звук] pb.wtf

Она испекла убийство: Загадка шоколадного печенья через торрент pb.wtf

Размер: 1.37 GB | Добавлен: 4 года назад | Торрент скачан:177 раз
Скачать  

07-01-2016 19:42 Она испекла убийство: Загадка шоколадного печенья Скачать торрент  

Она испекла убийство: Загадка шоколадного печенья / Murder, She Baked: A Chocolate Chip Cookie Mystery
Год выпуска: 2015
Страна: Великобритания / Brad Krevoy Television, Front Street Pictures, Stephanie Germain Productions
Жанр: детектив
Продолжительность: 01:23:27

  • Перевод: Профессиональный многоголосый [Чистый звук]
  • Оригинальная аудиодорожка: Нет

Режиссер: Марк Жан
В ролях: Элисон Суини (Hannah Swensen), Камерон Мэттисон (Mike Kingston), Лиза Дурупт (Andrea Todd), Тоби Левинс (Bill Todd), Джулиана Уимблс (Lisa Herman), Барбара Нивен (Delores Swensen), Полин Иган (Claire Rodgers), Гэбриел Хоган (Norman Rhodes), Сьюзэн Хоган (Judith Woodley), Линда Дарлоу (Betty Jackson), Мередит МакГичи (Danielle Watson), Дуглас Чэпман (Boyd Watson)
Описание: Пекарь в маленьком городке штата Миннесота превращается в сыщика-любителя после того, как находит своего друга и водителя-доставщика застреленными рядом с ее магазином.




  • Тип релиза: HDTVRip
  • Формат: AVI
  • Видео кодек: XviD | Аудио кодек: AC3
  • Видео: XviD, 720x400 (16:9), 1951 kbps, 23,976 fps, 0,283 bpp
  • Аудио: AC3 / 2.0 / 48 kHz / 384 kbps / 16 bit:
  • Сэмпл: скачать
General
Complete name : C:\торрент\тор\0na.1spEkla.Ub1y7tv0.2015.P.HDTVRip.1400MB.ELEKTRI4KA.uniongang.tv.avi
Format : AVI
Format/Info : Audio Video Interleave
File size : 1.37 GiB
Duration : 1h 23mn
Overall bit rate : 2 344 Kbps
Writing application : VirtualDubMod 1.5.10.3 | www.virtualdub-fr.org || (build 2550/release)
Writing library : VirtualDubMod build 2550/release

Video
ID : 0
Format : MPEG-4 Visual
Format profile : Advanced Simple@L5
Format settings, BVOP : 2
Format settings, QPel : No
Format settings, GMC : No warppoints
Format settings, Matrix : Default (MPEG)
Codec ID : XVID
Codec ID/Hint : XviD
Duration : 1h 23mn
Bit rate : 1 951 Kbps
Width : 720 pixels
Height : 400 pixels
Display aspect ratio : 16:9
Frame rate : 23.976 fps
Color space : YUV
Chroma subsampling : 4:2:0
Bit depth : 8 bits
Scan type : Progressive
Compression mode : Lossy
Bits/(Pixel*Frame) : 0.283
Stream size : 1.14 GiB (83%)
Writing library : XviD 1.2.1 (UTC 2008-12-04)

Audio
ID : 1
Format : AC-3
Format/Info : Audio Coding 3
Mode extension : CM (complete main)
Codec ID : 2000
Duration : 1h 23mn
Bit rate mode : Constant
Bit rate : 384 Kbps
Channel(s) : 2 channels
Channel positions : Front: L R
Sampling rate : 48.0 KHz
Bit depth : 16 bits
Compression mode : Lossy
Stream size : 229 MiB (16%)
Alignment : Split accross interleaves
Interleave, duration : 42 ms (1.00 video frame)
Interleave, preload duration : 500 ms
Внимание, в релизе присутствует реклама казино. Что делать? ждать когда выложат релиз без этого (в них всегда указанно что релиз без рекламы) либо лицензию. Запретить такие темы нельзя, пока нет альтернативы.pb.wtf



Скачать Она испекла убийство: Загадка шоколадного печенья через торрент http://i65.fastpic.ru/big/2016/0107/6d/1dc6ead9731eeec51bf9655cfbd8cd6d.jpg Скачать фильм Она испекла убийство: Загадка шоколадного печенья через торрент бесплантно в хорошем качестве Описание: Пекарь в маленьком городке штата Миннесота превращается в сыщика-любителя после того, как находит своего друга и ... 9.1 10 10
Торрент: Зарегистрирован [2016-01-07 19:42] · скачан: 177 раз
Статус: T временная
Размер: 1.37 GB
Как cкачать? Как скачать Она испекла убийство: Загадка шоколадного печенья через торрент | qTorrent

28-11-2019 20:33  

Отключить всю рекламу на сайте

08-01-2016 10:10 Она испекла убийство: Загадка шоколадного печенья Скачать торрент  

Я бы такое название наверно только под грибами в пьяном угаре придумал pb.wtf



    Дорогой пользователь! Огромная просьба, поблагодарите релизера, оцените раздачу и оставьте свои комментарий, если Вы скачали Она испекла убийство: Загадка шоколадного печенья через торрент бесплатно! Внесите свою лепту в развитие PiratBit!
    Комментировать посты могут только пользователи прошедшие не сложную регистрацию
    Показать сообщения:    

    Она испекла убийство: Загадка шоколадного печенья через торрент
    Скачать бесплатно Она испекла убийство: Загадка шоколадного печенья
    Она испекла убийство: Загадка шоколадного печенья скачать торрент
    Она испекла убийство: Загадка шоколадного печенья смотреть онлайн
    Cкачать фильм Она испекла убийство: Загадка шоколадного печенья бесплатно
    Она испекла убийство: Загадка шоколадного печенья скачать торрент в хорошем качестве
    Она испекла убийство: Загадка шоколадного печенья смотреть онлайн бесплатно в хорошем качестве


    Вы не можете начинать темы
    Вы не можете отвечать на сообщения
    Вы не можете редактировать свои сообщения
    Вы не можете удалять свои сообщения
    Вы не можете голосовать в опросах
    Вы не можете прикреплять файлы к сообщениям
    Вы можете скачивать файлы