Ссылка на приватное зеркало всего за 1$. Внимание количество ограничено!!!

iTunes

iTunes

iTunes

1

iTunes

iTunes

iTunes

iTunes

iTunes

30
pack

$ от Little Big

ВАЖНО

!!Акция!!

Alien_RageХит недели

RePack

Resident Evil 21

ИГРА 18+

pack

RePack

jed

!!Акция!!

Alien_Rage

RePack

fifa19

RePack

Assassins Creed: Odyssey

RePack

NEED FOR SPEED™ PAYBACK

4 сезон

9 сезон

Бесстыжие 9 сезон

Все сериалы

все сериалы на PB.wtf

RePack

FAR CRY 5
  

Ривер 9 / Rivers 9 (Крис В. Фриман / Chris W. Freeman, Джастин Джонс / Justin Jones) [2015, США, боевик, комедия, криминал, WEB-DL 720p] DVO [Parovoz Production] + ENG pb.wtf

Ривер 9 через торрент pb.wtf

Размер: 2.69 GB | Добавлен: 4 года 6 мес. назад | Торрент скачан:283 раза
Скачать  

08-01-2016 02:20 Ривер 9 Скачать торрент  

Rivers 9
«Дом всегда побеждает... не на сей раз»


  • Год выпуска: 2015
  • Страна: США
  • Жанр: боевик, комедия, криминал
  • Продолжительность: 01:34:28
  • Перевод: Любительский (двухголосый) [Parovoz Production]

  • Субтитры: русские,
  • Режиссер: Крис В. Фриман / Chris W. Freeman, Джастин Джонс / Justin Jones
  • В ролях:

    Винни Джонс (Ray Kaplan), Элизабет Рём (Grace Rivers), Томас Дауни (Jake Rivers), Кайла Карлайл (Skye Rivers), Си Томас Хауэлл (Sheriff Quentin), Джейми Кеннеди (Rob), Нил Браун мл. (Virgil Dobbs), Лесли Истербрук (Martha), Эд О’Росс (Covington), Адриан Кирк (Desiree), Крэйг Аренс (Mario), Джоан М. Блэр (Sue Wanders)


  • Миры наркоторговли и игорного бизнеса чрезвычайно жестоки. Здесь нельзя никому доверять, а нож в спину могут воткнуть в каждую минуту. То и дело летят головы, а полиция каждый день находит новые трупы людей, которые, так или иначе, имели отношение к преступному миру. На чьей стороне правда, когда окончится эта негласная война и кто победит в игре без правил?
  • Рейтинг:



  • Качество: WEB-DL 720p
  • Формат: :MKV
  • Видео кодек: AVC
  • Аудио кодек: AC3
  • Видео: 1280x720 (16:9), 3500 kbps, 25 fps, 0,152 bpp
  • Аудио №1: русский / 2.0 / 48 kHz / 192 kbps / 16 bit |[Parovoz Production]|
  • Аудио №2: английский / 2.0 / 44 kHz / 384 kbps / 16 bit
  • Релиз от: GEKADOL

    Код:

    General
    Unique ID                                : 179223605342542828550574201286388973287 (0x86D535F8C286A909821483F4D5217EE7)
    Complete name                            : G:\R1vErs.9.2015.L2.WEB-DL.720p.mkv
    Format                                   : Matroska
    Format version                           : Version 4 / Version 2
    File size                                : 2.69 GiB
    Duration                                 : 1h 34mn
    Overall bit rate                         : 4 078 Kbps
    Encoded date                             : UTC 2016-01-07 20:57:30
    Writing application                      : mkvmerge v8.7.0 ('All of the above') 64bit
    Writing library                          : libebml v1.3.3 + libmatroska v1.4.4
    DURATION                                 : 01:16:40.000000000
    NUMBER_OF_FRAMES                         : 2
    NUMBER_OF_BYTES                          : 154
    _STATISTICS_WRITING_APP                  : mkvmerge v8.7.0 ('All of the above') 64bit
    _STATISTICS_WRITING_DATE_UTC             : 2016-01-07 20:57:30
    _STATISTICS_TAGS                         : BPS DURATION NUMBER_OF_FRAMES NUMBER_OF_BYTES

    Video
    ID                                       : 1
    Format                                   : AVC
    Format/Info                              : Advanced Video Codec
    Format profile                           : High@L4.1
    Format settings, CABAC                   : Yes
    Format settings, ReFrames                : 4 frames
    Codec ID                                 : V_MPEG4/ISO/AVC
    Duration                                 : 1h 34mn
    Bit rate                                 : 3 500 Kbps
    Width                                    : 1 280 pixels
    Height                                   : 720 pixels
    Display aspect ratio                     : 16:9
    Frame rate                               : 25.000 fps
    Color space                              : YUV
    Chroma subsampling                       : 4:2:0
    Bit depth                                : 8 bits
    Scan type                                : Progressive
    Bits/(Pixel*Frame)                       : 0.152
    Stream size                              : 2.26 GiB (84%)
    Writing library                          : x264 core 146 r2538 121396c
    Encoding settings                        : cabac=1 / ref=3 / deblock=1:-3:-3 / analyse=0x3:0x113 / me=hex / subme=6 / psy=1 / psy_rd=1.00:0.00 / mixed_ref=1 / me_range=16 / chroma_me=1 / trellis=2 / 8x8dct=1 / cqm=0 / deadzone=21,11 / fast_pskip=1 / chroma_qp_offset=-2 / threads=9 / lookahead_threads=1 / sliced_threads=0 / nr=0 / decimate=1 / interlaced=0 / bluray_compat=0 / constrained_intra=0 / bframes=3 / b_pyramid=2 / b_adapt=1 / b_bias=0 / direct=1 / weightb=1 / open_gop=0 / weightp=2 / keyint=250 / keyint_min=25 / scenecut=40 / intra_refresh=0 / rc_lookahead=40 / rc=2pass / mbtree=1 / bitrate=3500 / ratetol=1.0 / qcomp=0.60 / qpmin=0 / qpmax=69 / qpstep=4 / cplxblur=20.0 / qblur=0.5 / ip_ratio=1.40 / aq=1:1.00
    Language                                 : English
    Default                                  : Yes
    Forced                                   : No
    DURATION                                 : 01:34:28.520000000
    NUMBER_OF_FRAMES                         : 141713
    NUMBER_OF_BYTES                          : 2479809483
    _STATISTICS_WRITING_APP                  : mkvmerge v8.7.0 ('All of the above') 64bit
    _STATISTICS_WRITING_DATE_UTC             : 2016-01-07 20:57:30
    _STATISTICS_TAGS                         : BPS DURATION NUMBER_OF_FRAMES NUMBER_OF_BYTES

    Audio #1
    ID                                       : 2
    Format                                   : AC-3
    Format/Info                              : Audio Coding 3
    Mode extension                           : CM (complete main)
    Codec ID                                 : A_AC3
    Duration                                 : 1h 34mn
    Bit rate mode                            : Constant
    Bit rate                                 : 192 Kbps
    Channel(s)                               : 2 channels
    Channel positions                        : Front: L R
    Sampling rate                            : 48.0 KHz
    Bit depth                                : 16 bits
    Compression mode                         : Lossy
    Stream size                              : 130 MiB (5%)
    Language                                 : Russian
    Default                                  : Yes
    Forced                                   : No

    Audio #2
    ID                                       : 3
    Format                                   : AC-3
    Format/Info                              : Audio Coding 3
    Mode extension                           : CM (complete main)
    Codec ID                                 : A_AC3
    Duration                                 : 1h 34mn
    Bit rate mode                            : Constant
    Bit rate                                 : 384 Kbps
    Channel(s)                               : 2 channels
    Channel positions                        : Front: L R
    Sampling rate                            : 44.1 KHz
    Bit depth                                : 16 bits
    Compression mode                         : Lossy
    Stream size                              : 259 MiB (9%)
    Language                                 : English
    Default                                  : No
    Forced                                   : No

    Text
    ID                                       : 4
    Format                                   : UTF-8
    Codec ID                                 : S_TEXT/UTF8
    Codec ID/Info                            : UTF-8 Plain Text
    Language                                 : Russian
    Default                                  : Yes
    Forced                                   : Yes




    Скриншоты:



    pb.wtf
    !-Lexx- писал(а):

    Внимание, в релизе присутствует реклама казино. Что делать? ждать когда выложат релиз без этого (в них всегда указанно что релиз без рекламы) либо лицензию. Запретить такие темы нельзя, пока нет альтернативы.



  • Скачать Ривер 9 через торрент http://i73.fastpic.ru/big/2016/0108/12/6587a8e5db7af91b2197420b48cc5012.jpg Скачать фильм Ривер 9 через торрент бесплантно в хорошем качестве qw.png Миры наркоторговли и игорного бизнеса чрезвычайно жестоки. Здесь нельзя никому доверять, а нож в спину могут воткнуть в каждую ... 7.9 10 12
    Торрент: Зарегистрирован [2016-01-08 02:20] · скачан: 283 раз
    Статус: T временная
    Размер: 2.69 GB
    Как cкачать? Как скачать Ривер 9 через торрент | qTorrent

    28-11-2019 20:33  

    Отключить всю рекламу на сайте

    08-01-2016 07:56 Ривер 9 Скачать торрент  

    Как фиьмец, кто смотрел?pb.wtf



      Дорогой пользователь! Огромная просьба, поблагодарите релизера, оцените раздачу и оставьте свои комментарий, если Вы скачали Ривер 9 через торрент бесплатно! Внесите свою лепту в развитие PiratBit!
      Комментировать посты могут только пользователи прошедшие не сложную регистрацию
      Показать сообщения:    

      Ривер 9 через торрент
      Скачать бесплатно Ривер 9
      Ривер 9 скачать торрент
      Ривер 9 смотреть онлайн
      Cкачать фильм Ривер 9 бесплатно
      Ривер 9 скачать торрент в хорошем качестве
      Ривер 9 смотреть онлайн бесплатно в хорошем качестве


      Вы не можете начинать темы
      Вы не можете отвечать на сообщения
      Вы не можете редактировать свои сообщения
      Вы не можете удалять свои сообщения
      Вы не можете голосовать в опросах
      Вы не можете прикреплять файлы к сообщениям
      Вы можете скачивать файлы