Ссылка на приватное зеркало нашего сайта всего за 1$. Внимание количество ограничено!!!

2 сезон

iTunes

iTunes

1

iTunes

iTunes

iTunes

WEBRip

iTunes

30
pack

Вам бонус

ВАЖНО

!!Акция!!

Alien_RageХит недели

RePack

Horizon Zero Dawn

ИГРА 18+

pack

RePack

jed

!!Акция!!

Alien_Rage

RePack

fifa19

RePack

Assassins Creed: Odyssey

RePack

NEED FOR SPEED™ PAYBACK

4 сезон

9 сезон

Бесстыжие 9 сезон

Все сериалы

все сериалы на PB.wtf

RePack

FAR CRY 5
  

Эшби / Ashby (Тони МакНамара / Tony McNamara) [2015, драма, мелодрама, комедия, BDRip-AVC от potroks] Dub [iTunes] pb.wtf

Эшби через торрент pb.wtf

Размер: 2.13 GB | Добавлен: 4 года 8 мес. назад | Торрент скачан:378 раз
Скачать  

08-01-2016 08:33 Эшби Скачать торрент  

Эшби / Ashby
«Просто киллер»
Год выпуска: 2015
Страна: США / Head Gear Films, Langley Park Productions, Metrol Technology
Жанр: драма, мелодрама, комедия, криминал
Продолжительность: 01:43:00
Перевод: Дубляж [iTunes]
Субтитры: английские (Full), английские (SDH)
Навигация по главам: есть
Режиссер: Тони МакНамара / Tony McNamara
В ролях:

Микки Рурк (Ashby Holt), Нат Вулф (Ed Wallis), Эмма Робертс (Eloise), Сара Силверман (June Wallis), Кевин Данн (Coach Bruton), Захари Найтон (Father Ted), Майкл Лернер (Entwhistle), Джон Инос III (Coach Wally), Стив Култер (Peter Black), Том Ноуики (Kenrick), Адам Алдеркс (Valchek), Сет Даусмен (Garry Smits)
Описание: Переехав в другой город, Эд начинает дружить со своим новым соседом Эшби - бывшим киллером ЦРУ, которому осталось жить всего несколько месяцев...

Качество: BDRip-AVC
Формат: MKV
Видео кодек: AVC
Аудио кодек: AC3
Видео: 1152x480 (2.40:1), 2134 kbps, 23,976 fps, 0.161 bit/pixel
Аудио#1: AC3 / 5.1 / 48 kHz / 384 kbps / 16 bit | RUS
Аудио#2: AC3 / 5.1 / 48 kHz / 448 kbps / 16 bit | ENG

Релиз группы:
Автор рипа: potroks

Код:

General
Unique ID                   : 212339935374897040889515592593809453179 (0x9FBF2F1A268DA4FB81F8FD305F19B07B)
Complete name               : Eshbi.2015.DUAL.BDRip.x264.-HELLYWOOD.mkv
Format                      : Matroska
Format version              : Version 4 / Version 2
File size                   : 2.13 GiB
Duration                    : 1h 43mn
Overall bit rate            : 2 965 Kbps
Movie name                  : Ashby (2015) - HELLYWOOD
Encoded date                : UTC 2010-02-22 21:41:31
Writing application         : mkvmerge v5.8.0 ('No Sleep / Pillow') built on Sep 30 2012 10:57:14
Writing library             : libebml v1.3.0 + libmatroska v1.4.0

Video
ID                          : 1
Format                      : AVC
Format/Info                 : Advanced Video Codec
Format profile              : High@L4.1
Format settings, CABAC      : Yes
Format settings, ReFrames   : 10 frames
Codec ID                    : V_MPEG4/ISO/AVC
Duration                    : 1h 43mn
Bit rate                    : 2 134 Kbps
Width                       : 1 152 pixels
Height                      : 480 pixels
Display aspect ratio        : 2.40:1
Frame rate mode             : Constant
Frame rate                  : 23.976 fps
Color space                 : YUV
Chroma subsampling          : 4:2:0
Bit depth                   : 8 bits
Scan type                   : Progressive
Bits/(Pixel*Frame)          : 0.161
Stream size                 : 1.49 GiB (70%)
Title                       : potroks
Writing library             : x264 core 146 r2538 121396c
Encoding settings           : cabac=1 / ref=10 / deblock=1:-2:-2 / analyse=0x3:0x113 / me=umh / subme=11 / psy=1 / psy_rd=1.00:0.05 / mixed_ref=1 / me_range=48 / chroma_me=1 / trellis=2 / 8x8dct=1 / cqm=0 / deadzone=21,11 / fast_pskip=0 / chroma_qp_offset=-3 / threads=9 / lookahead_threads=2 / sliced_threads=0 / nr=0 / decimate=1 / interlaced=0 / bluray_compat=0 / constrained_intra=0 / bframes=11 / b_pyramid=2 / b_adapt=2 / b_bias=0 / direct=3 / weightb=1 / open_gop=0 / weightp=2 / keyint=240 / keyint_min=23 / scenecut=40 / intra_refresh=0 / rc_lookahead=60 / rc=2pass / mbtree=0 / bitrate=2134 / ratetol=1.0 / qcomp=0.70 / qpmin=0 / qpmax=69 / qpstep=4 / cplxblur=20.0 / qblur=0.5 / vbv_maxrate=14000 / vbv_bufsize=14000 / nal_hrd=none / filler=0 / ip_ratio=1.35 / pb_ratio=1.25 / aq=1:0.80
Language                    : English
Default                     : Yes
Forced                      : No

Audio #1
ID                          : 2
Format                      : AC-3
Format/Info                 : Audio Coding 3
Mode extension              : CM (complete main)
Format settings, Endianness : Big
Codec ID                    : A_AC3
Duration                    : 1h 43mn
Bit rate mode               : Constant
Bit rate                    : 384 Kbps
Channel(s)                  : 6 channels
Channel positions           : Front: L C R, Side: L R, LFE
Sampling rate               : 48.0 KHz
Frame rate                  : 31.250 fps (1536 spf)
Compression mode            : Lossy
Stream size                 : 283 MiB (13%)
Title                       : Dub | DD 5.1 @ 384 kbps - iTunes
Language                    : Russian
Default                     : Yes
Forced                      : No

Audio #2
ID                          : 3
Format                      : AC-3
Format/Info                 : Audio Coding 3
Mode extension              : CM (complete main)
Format settings, Endianness : Big
Codec ID                    : A_AC3
Duration                    : 1h 43mn
Bit rate mode               : Constant
Bit rate                    : 448 Kbps
Channel(s)                  : 6 channels
Channel positions           : Front: L C R, Side: L R, LFE
Sampling rate               : 48.0 KHz
Frame rate                  : 31.250 fps (1536 spf)
Compression mode            : Lossy
Stream size                 : 330 MiB (15%)
Title                       : Original | DD 5.1 @ 448 kbps
Language                    : English
Default                     : No
Forced                      : No

Text #1
ID                          : 4
Format                      : UTF-8
Codec ID                    : S_TEXT/UTF8
Codec ID/Info               : UTF-8 Plain Text
Title                       : Full
Language                    : English
Default                     : No
Forced                      : No

Text #2
ID                          : 5
Format                      : UTF-8
Codec ID                    : S_TEXT/UTF8
Codec ID/Info               : UTF-8 Plain Text
Title                       : SDH
Language                    : English
Default                     : No
Forced                      : No

Menu
00:00:00.000                : en:(01)00:00:00:000
00:07:42.211                : en:(02)00:07:42:211
00:13:15.169                : en:(03)00:13:15:169
00:18:51.004                : en:(04)00:18:51:004
00:25:08.715                : en:(05)00:25:08:715
00:29:19.966                : en:(06)00:29:19:966
00:33:39.517                : en:(07)00:33:39:517
00:42:00.059                : en:(08)00:42:00:059
00:51:44.810                : en:(09)00:51:44:810
00:55:49.179                : en:(10)00:55:49:179
01:00:12.942                : en:(11)01:00:12:942
01:05:25.212                : en:(12)01:05:25:212
01:11:29.910                : en:(13)01:11:29:910
01:18:38.171                : en:(14)01:18:38:171
01:24:38.031                : en:(15)01:24:38:031
01:27:34.290                : en:(16)01:27:34:290
01:30:07.485                : en:(17)01:30:07:485
01:38:48.714                : en:(18)01:38:48:714

pb.wtf



Скачать Эшби через торрент http://i73.fastpic.ru/big/2016/0107/35/92812c58dd7f789637821c645c87ea35.png Скачать фильм Эшби через торрент бесплантно в хорошем качестве Описание: Переехав в другой город, Эд начинает дружить со своим новым соседом Эшби - бывшим киллером ЦРУ, которому осталось жить всего ... 10 10 9
Info! Золотая раздача, скачанное не засчитывается.
Торрент: Зарегистрирован [2016-01-08 08:33] · скачан: 378 раз
Статус: √ проверено
Размер: 2.13 GB
Как cкачать? Как скачать Эшби через торрент | qTorrent

% Раздел Тема Автор DL S | L
Фильмы 2015 [DVDrip, WEB-DLRip, HDrip] [ 1.41 GB ] Эшби / Ashby [2015 BDRip-AVC от sokol_ok] Dub sokol_ok Скачать
2 | 0
Фильмы 2015 [DVDrip, WEB-DLRip, HDrip] [ 2.13 GB ] Эшби / Ashby [2015 BDRip-AVC от sokol_ok] Dub sokol_ok Скачать
2 | 0
Фильмы [HD 720p, 1080p] (Хороший звук DUB, MVO) [ 4.19 GB ] Эшби / Ashby [2015 BDRip 720p от _denis_100 / NNNB] - _denis_100 Скачать
1 | 0
R.G. Resident & PiratVoice - Фильмы, Видео [ 7.82 GB ] Эшби / Ashby [2015 BDRip 1080p ] schultz Скачать
1 | 0
Фильмы 2015 [DVDrip, WEB-DLRip, HDrip] [ 1.41 GB ] Эшби / Ashby [2015 BDRip] Dub Twi7ter Скачать
1 | 0
Фильмы [HD 720p, 1080p] (Хороший звук DUB, MVO) [ 10.18 GB ] Эшби / Ashby [2015 BDRip 1080p] ] -Lexx- Скачать
1 | 0
Фильмы 2015 [DVDrip, WEB-DLRip, HDrip] [ 1.41 GB ] Эшби / Ashby [2015 BDRip-AVC] Dub potroks Скачать
1 | 0

28-11-2019 20:33  

Отключить всю рекламу на сайте

    Дорогой пользователь! Огромная просьба, поблагодарите релизера, оцените раздачу и оставьте свои комментарий, если Вы скачали Эшби через торрент бесплатно! Внесите свою лепту в развитие PiratBit!
    Комментировать посты могут только пользователи прошедшие не сложную регистрацию
    Показать сообщения:    

    Эшби через торрент
    Скачать бесплатно Эшби
    Эшби скачать торрент
    Эшби смотреть онлайн
    Cкачать фильм Эшби бесплатно
    Эшби скачать торрент в хорошем качестве
    Эшби смотреть онлайн бесплатно в хорошем качестве


    Вы не можете начинать темы
    Вы не можете отвечать на сообщения
    Вы не можете редактировать свои сообщения
    Вы не можете удалять свои сообщения
    Вы не можете голосовать в опросах
    Вы не можете прикреплять файлы к сообщениям
    Вы можете скачивать файлы