Ссылка на приватное зеркало нашего сайта всего за 1$. Внимание количество ограничено!!!

2 сезон

iTunes

1 сезон

1

iTunes

iTunes

iTunes

1 сезон

RePack

30

ИГРА 18+

pack

ВАЖНО

!!Акция!!

Alien_RageХит недели

RePack

MK11
pack

Забери бонус

RePack

jed

!!Акция!!

Alien_Rage

RePack

fifa19

RePack

Assassins Creed: Odyssey

RePack

NEED FOR SPEED™ PAYBACK

4 сезон

9 сезон

Бесстыжие 9 сезон

Все сериалы

все сериалы на PB.wtf

RePack

FAR CRY 5
  

На последнем дыхании / Breathless (Джим МакБрайд) [1983, боевик, триллер, драма, мелодрама, BDRip 1080p by msltel] MVO, 3 x AVO pb.wtf

На последнем дыхании через торрент pb.wtf

Размер: 12.66 GB | Добавлен: 4 года 9 мес. назад | Торрент скачан:11 раз
Скачать  

08-01-2016 11:47 На последнем дыхании Скачать торрент  

Название: На последнем дыхании
Оригинальное название: Breathless
Год выпуска: 1983
Страна: США
Жанр: боевик, триллер, драма, мелодрама
Продолжительность: 01:40:25
Перевод: профессиональный многоголосый, авторский

Режиссёр: Джим МакБрайд

В ролях: Ричард Гир, Валери Каприски, Арт Метрано, Джон П. Райан, Уильям Теппер, Гарри Гудроу, Роберт Данн, Эжен Лурье, Лиза Джейн Перски, Джеймс Хонг, Вальдемар Калиновски, Мигель Пинеро, Генри Дж. Сандерс, Хавьер Грайеда, Брайан Варади, Кит Эддис, Хелен Келли, Джек Люстиг, Георг Ольден, Изабель Кули

Описание: Обстоятельства складываются так, что Джесси необходимо срочно уносить ноги из Лас-Вегаса. Этот импульсивный молодой человек не привык жить по закону. Он угоняет автомобиль, а по пути в Лос-Анджелес у него получается застрелить полицейского. По мере приближения к городу его положение всё более усугубляется. Кажется, что весь мир ополчился против него. Но, как ни странно, именно в это время он знакомится с девушкой, которая заставляет его сердце то колотиться в бешеном темпе, то замирать от остроты чувств. Он ждал эту девушку всю жизнь. И теперь, когда за ним охотится вся полиция штата, думать приходится совсем о другом...



Качество: BDRip 1080p Сравнение с исходником
Формат: MKV
Видео: MPEG-4 AVC, 13.1 Mбит/с, 1920x1040, 23,976 кадра/с
Аудио 1: русский, AC3, 192 kbps, 2 ch, 48 kHz [профессиональный многоголосый]
Аудио 2: русский, DTS, 1509 kbps, 2 ch, 48 kHz [авторский, Андрей Гаврилов]
Аудио 3: русский, AC3, 192 kbps, 2 ch, 48 kHz [авторский, Василий Горчаков]
Аудио 4: русский, DTS, 1509 kbps, 2 ch, 48 kHz [авторский, Михаил Иванов]
Аудио 5: английский, DTS, 1509 kbps, 2 ch, 48 kHz [оригинал]
Субтитры: английские
Общее
Уникальный идентификатор : 220295912870366723910099845885774261098 (0xA5BB7313E4FE5C1D9B5AE9413B33EB6A)
Полное имя : D:\Video\На последнем дыхании.1983.BDRip.1080p.mkv
Формат : Matroska
Версия формата : Version 4 / Version 2
Размер файла : 12,7 Гбайт
Продолжительность : 1 ч. 40 м.
Общий поток : 18,0 Мбит/сек
Дата кодирования : UTC 2016-01-08 09:00:54
Программа кодирования : mkvmerge v8.2.0 ('World of Adventure') 64bit
Библиотека кодирования : libebml v1.3.1 + libmatroska v1.4.2

Видео
Идентификатор : 1
Формат : AVC
Формат/Информация : Advanced Video Codec
Профиль формата : High@L4.1
Параметр CABAC формата : Да
Параметр ReFrames формата : 4 кадра
Идентификатор кодека : V_MPEG4/ISO/AVC
Продолжительность : 1 ч. 40 м.
Битрейт : 13,1 Мбит/сек
Ширина : 1920 пикселей
Высота : 1040 пикселей
Соотношение сторон : 1,85:1
Режим частоты кадров : Постоянный
Частота кадров : 23,976 (24000/1001) кадра/сек
Цветовое пространство : YUV
Субдискретизация насыщенности : 4:2:0
Битовая глубина : 8 бит
Тип развёртки : Прогрессивная
Бит/(Пиксели*Кадры) : 0.274
Размер потока : 9,21 Гбайт (73%)
Библиотека кодирования : x264 core 146 r2538 121396c
Настройки программы : cabac=1 / ref=4 / deblock=1:-3:-3 / analyse=0x3:0x113 / me=umh / subme=10 / psy=1 / psy_rd=1.00:0.15 / mixed_ref=1 / me_range=32 / chroma_me=1 / trellis=2 / 8x8dct=1 / cqm=0 / deadzone=21,11 / fast_pskip=1 / chroma_qp_offset=-3 / threads=6 / lookahead_threads=1 / sliced_threads=0 / nr=0 / decimate=1 / interlaced=0 / bluray_compat=0 / constrained_intra=0 / bframes=9 / b_pyramid=2 / b_adapt=2 / b_bias=0 / direct=1 / weightb=1 / open_gop=0 / weightp=2 / keyint=230 / keyint_min=23 / scenecut=40 / intra_refresh=0 / rc_lookahead=40 / rc=crf / mbtree=0 / crf=20.6 / qcomp=0.60 / qpmin=0 / qpmax=69 / qpstep=4 / vbv_maxrate=40000 / vbv_bufsize=50000 / crf_max=0.0 / nal_hrd=none / filler=0 / ip_ratio=1.40 / pb_ratio=1.30 / aq=1:1.00
Язык : English
Default : Да
Forced : Нет

Аудио #1
Идентификатор : 2
Формат : AC-3
Формат/Информация : Audio Coding 3
Расширение режима : CM (complete main)
Параметр Endianness формата : Big
Идентификатор кодека : A_AC3
Продолжительность : 1 ч. 40 м.
Вид битрейта : Постоянный
Битрейт : 192 Кбит/сек
Каналы : 2 канала
Расположение каналов : Front: L R
Частота : 48,0 КГц
Частота кадров : 31,250 кадров/сек (1536 spf)
Метод сжатия : С потерями
Размер потока : 138 Мбайт (1%)
Заголовок : MVO
Язык : Russian
Default : Да
Forced : Нет

Аудио #2
Идентификатор : 3
Формат : DTS
Формат/Информация : Digital Theater Systems
Режим : 16
Параметр Endianness формата : Big
Идентификатор кодека : A_DTS
Продолжительность : 1 ч. 40 м.
Вид битрейта : Постоянный
Битрейт : 1509 Кбит/сек
Каналы : 2 канала
Расположение каналов : Front: L R
Частота : 48,0 КГц
Частота кадров : 93,750 кадра/сек (512 spf)
Битовая глубина : 24 бит
Метод сжатия : С потерями
Размер потока : 1,06 Гбайт (8%)
Заголовок : AVO (Андрей Гаврилов)
Язык : Russian
Default : Нет
Forced : Нет

Аудио #3
Идентификатор : 4
Формат : AC-3
Формат/Информация : Audio Coding 3
Расширение режима : CM (complete main)
Параметр Endianness формата : Big
Идентификатор кодека : A_AC3
Продолжительность : 1 ч. 40 м.
Вид битрейта : Постоянный
Битрейт : 192 Кбит/сек
Каналы : 2 канала
Расположение каналов : Front: L R
Частота : 48,0 КГц
Частота кадров : 31,250 кадров/сек (1536 spf)
Метод сжатия : С потерями
Размер потока : 138 Мбайт (1%)
Заголовок : AVO (Василий Горчаков)
Язык : Russian
Default : Нет
Forced : Нет

Аудио #4
Идентификатор : 5
Формат : DTS
Формат/Информация : Digital Theater Systems
Режим : 16
Параметр Endianness формата : Big
Идентификатор кодека : A_DTS
Продолжительность : 1 ч. 40 м.
Вид битрейта : Постоянный
Битрейт : 1509 Кбит/сек
Каналы : 2 канала
Расположение каналов : Front: L R
Частота : 48,0 КГц
Частота кадров : 93,750 кадра/сек (512 spf)
Битовая глубина : 24 бит
Метод сжатия : С потерями
Размер потока : 1,06 Гбайт (8%)
Заголовок : AVO (Михаил Иванов)
Язык : Russian
Default : Нет
Forced : Нет

Аудио #5
Идентификатор : 6
Формат : DTS
Формат/Информация : Digital Theater Systems
Режим : 16
Параметр Endianness формата : Big
Идентификатор кодека : A_DTS
Продолжительность : 1 ч. 40 м.
Вид битрейта : Постоянный
Битрейт : 1509 Кбит/сек
Каналы : 2 канала
Расположение каналов : Front: L R
Частота : 48,0 КГц
Частота кадров : 93,750 кадра/сек (512 spf)
Битовая глубина : 24 бит
Метод сжатия : С потерями
Размер потока : 1,06 Гбайт (8%)
Заголовок : Original
Язык : English
Default : Нет
Forced : Нет

Текст
Идентификатор : 7
Формат : UTF-8
Идентификатор кодека : S_TEXT/UTF8
Идентификатор кодека/Информация : UTF-8 Plain Text
Продолжительность : 1 ч. 39 м.
Битрейт : 52 бит/сек
Count of elements : 1364
Размер потока : 38,6 Кбайт (0%)
Заголовок : английский (для слабослышащих)
Язык : English
Default : Нет
Forced : Нет
pb.wtf



Скачать На последнем дыхании через торрент http://s018.radikal.ru/i510/1601/99/28880519fa21.png Скачать фильм На последнем дыхании через торрент бесплантно в хорошем качестве Описание: Обстоятельства складываются так, что Джесси необходимо срочно уносить ноги из Лас-Вегаса. Этот импульсивный молодой человек не ... 10 10 1
Info! Золотая раздача, скачанное не засчитывается.
Торрент: Зарегистрирован [2016-01-08 11:47] · скачан: 11 раз
Статус: √ проверено
Размер: 12.66 GB
Как cкачать? Как скачать На последнем дыхании через торрент | qTorrent

% Раздел Тема Автор DL S | L
Фильмы [HD 720p, 1080p] (Хороший звук DUB, MVO) [ 4.53 GB ] На последнем дыхании / Breathless [1983 BDRip 720p by msltel] MVO 3 x AVO msltel Скачать
1 | 0
Фильмы до 2000 г. [ 2.77 GB ] На последнем дыхании / Breathless [1983 BDRip AVC by msltel] MVO 3 x AVO msltel Скачать
1 | 0

28-11-2019 20:33  

Отключить всю рекламу на сайте

    Дорогой пользователь! Огромная просьба, поблагодарите релизера, оцените раздачу и оставьте свои комментарий, если Вы скачали На последнем дыхании через торрент бесплатно! Внесите свою лепту в развитие PiratBit!
    Комментировать посты могут только пользователи прошедшие не сложную регистрацию
    Показать сообщения:    

    На последнем дыхании через торрент
    Скачать бесплатно На последнем дыхании
    На последнем дыхании скачать торрент
    На последнем дыхании смотреть онлайн
    Cкачать фильм На последнем дыхании бесплатно
    На последнем дыхании скачать торрент в хорошем качестве
    На последнем дыхании смотреть онлайн бесплатно в хорошем качестве


    Вы не можете начинать темы
    Вы не можете отвечать на сообщения
    Вы не можете редактировать свои сообщения
    Вы не можете удалять свои сообщения
    Вы не можете голосовать в опросах
    Вы не можете прикреплять файлы к сообщениям
    Вы можете скачивать файлы