Ссылка на приватное зеркало всего за 1$. Внимание количество ограничено!!!

iTunes

iTunes

iTunes

1

iTunes

iTunes

iTunes

iTunes

iTunes

30
pack

$ от Little Big

ВАЖНО

!!Акция!!

Alien_RageХит недели

RePack

Resident Evil 21

ИГРА 18+

pack

RePack

jed

!!Акция!!

Alien_Rage

RePack

fifa19

RePack

Assassins Creed: Odyssey

RePack

NEED FOR SPEED™ PAYBACK

4 сезон

9 сезон

Бесстыжие 9 сезон

Все сериалы

все сериалы на PB.wtf

RePack

FAR CRY 5
  

Находка (Виктор Демент) [2015, драма, WEB-DLRip] [iTunes] pb.wtf

Находка через торрент pb.wtf

Размер: 1.45 GB | Добавлен: 4 года 4 мес. назад | Торрент скачан:784 раза
Скачать  

08-01-2016 14:59 Находка Скачать торрент  

Находка

  • Год выхода: 2015
  • Жанр: драма
  • Страна: Россия
  • Продолжительность: 01:38:58
  • Перевод: Не требуется [iTunes]
  • Режиссер: Виктор Демент
  • В ролях:

    Алексей Гуськов (Трофим Русанов), Надежда Маркина (Нюра, жена Трофима), Анастасия Шевелёва (Ольга Ечеина), Валерий Смирнов (Петр Егоров), Мария Сокова (Наталья), Егор Харламов (Иван), Анатолий Узденский (Пал Палыч), Марат Серажетдинов (Климов), Алексей Вертков (следователь), Владимир Шульга (Бобылев), Мария Бурова (Ирина Русанова), Лидия Байрашевская (фельдшер)


  • Старший инспектор рыбнадзора Трофим Русанов, считающий себя «Законом», а окружающих людей - «сволочами и ворьем», волей обстоятельств оказывается в таежном лесу, один на один с суровой природой, за десятки километров от человеческого жилья. Случай, произошедший с ним в заснеженной тайге, круто меняет его взгляды на жизнь...

  • Качество: WEB-DLRip
  • Формат: AVI
  • Видео кодек: XviD
  • Аудио кодек: AC3
  • Видео: XviD, 720x304 (2.35:1), 1627 kbps, 24 fps, 0,310 bpp
  • Аудио: AC3 / 5.1 / 48 kHz / 384 kbps / 16 bit

    Код:

    General
    Complete name                            : H:\Nah0dk0.2015.O.WEB-DLRip.1.45GB.avi
    Format                                   : AVI
    Format/Info                              : Audio Video Interleave
    File size                                : 1.45 GiB
    Duration                                 : 1h 38mn
    Overall bit rate                         : 2 104 Kbps
    Writing application                      : VirtualDubMod 1.5.10.3 | www.virtualdub-fr.org || (build 2550/release)
    Writing library                          : VirtualDubMod build 2550/release

    Video
    ID                                       : 0
    Format                                   : MPEG-4 Visual
    Format profile                           : Advanced Simple@L5
    Format settings, BVOP                    : 2
    Format settings, QPel                    : No
    Format settings, GMC                     : No warppoints
    Format settings, Matrix                  : Default (MPEG)
    Codec ID                                 : XVID
    Codec ID/Hint                            : XviD
    Duration                                 : 1h 38mn
    Bit rate                                 : 1 628 Kbps
    Width                                    : 720 pixels
    Height                                   : 304 pixels
    Display aspect ratio                     : 2.35:1
    Frame rate                               : 24.000 fps
    Color space                              : YUV
    Chroma subsampling                       : 4:2:0
    Bit depth                                : 8 bits
    Scan type                                : Progressive
    Compression mode                         : Lossy
    Bits/(Pixel*Frame)                       : 0.310
    Stream size                              : 1.13 GiB (77%)
    Writing library                          : XviD 1.2.1 (UTC 2008-12-04)

    Audio
    ID                                       : 1
    Format                                   : AC-3
    Format/Info                              : Audio Coding 3
    Mode extension                           : CM (complete main)
    Codec ID                                 : 2000
    Duration                                 : 1h 38mn
    Bit rate mode                            : Constant
    Bit rate                                 : 384 Kbps
    Channel(s)                               : 6 channels
    Channel positions                        : Front: L C R, Side: L R, LFE
    Sampling rate                            : 48.0 KHz
    Bit depth                                : 16 bits
    Compression mode                         : Lossy
    Stream size                              : 272 MiB (18%)
    Alignment                                : Split accross interleaves

    Скриншоты:


    © Оформление by -Lexx- pb.wtf



  • Скачать Находка через торрент http://pic.kartinco.top/images/6/stazu.jpg Скачать фильм Находка через торрент бесплантно в хорошем качестве qw.png Старший инспектор рыбнадзора Трофим Русанов, считающий себя «Законом», а окружающих людей - «сволочами и ворьем», волей ... 9.4 10 22
    Торрент: Зарегистрирован [2016-01-08 14:59] · скачан: 784 раз
    Статус: √ проверено
    Размер: 1.45 GB
    Как cкачать? Как скачать Находка через торрент | qTorrent

    % Раздел Тема Автор DL S | L
    Наши фильмы (HD, WEB-DL 720p, 1080p) [ 3.33 GB ] Находка [2015 WEB-DL 1080p] -Lexx- Скачать
    3 | 0
    Кино СССР [ 1.09 GB ] Таинственная находка [1953 СССР детский DVDRip-AVC от AVP Studio] AVP Studio Скачать
    1 | 0
    Кино СССР [ 744 MB ] Таинственная находка [1953 СССР детский DVDRip от AVP Studio] AVP Studio Скачать
    1 | 0
    Кино СССР [ 1.09 GB ] Таинственная находка [1953 СССР детский DVDRip от AVP Studio] AVP Studio Скачать
    1 | 0
    R.G. Resident & PiratVoice - Фильмы, Видео [ 1.46 GB ] Находка [2015 WEB-DLRip-AVCОригинал От R.G.Resident White Smoke Скачать
    1 | 0

    28-11-2019 20:33  

    Отключить всю рекламу на сайте

    08-01-2016 17:55 Находка Скачать торрент  

    как фильмец ребяты?pb.wtf



    09-01-2016 08:08 Находка Скачать торрент  

    Фильм конечно, я посмотрю. Вот только на реке, старший инспектор рыбнадзора как раз таки самая главная сволочь и есть. А уж как они воруют... любая рыбка и икорка...а на откупы от браков крузачек 200 легко прикупить... Есть конечно и в рыбнадзоре ЛЮДИ, но мало, очень мало и они бедные...pb.wtf



    09-01-2016 08:19 Находка Скачать торрент  

    описание заинтриговало, качаю глянуpb.wtf



    09-01-2016 15:06 Находка Скачать торрент  

    Фильм стоящий! Советую посмотреть!!pb.wtf



    10-01-2016 03:03 Находка Скачать торрент  

    Посмотрел. Серьезный фильм. И мужик конечно еще та "сволочь" для браков. Но мужик настоящий. Таких мало и они бедные...pb.wtf



    13-01-2016 01:28 Находка Скачать торрент  

    den2244 писал(а):

    Посмотрел. Серьезный фильм. И мужик конечно еще та "сволочь" для браков. Но мужик настоящий. Таких мало и они бедные...

    Да мужик этот настоящий ..., презерватив. Семью свою затюкал, рыбака погубил. Да и болван еще тот-бывалый охотник-рыболов, а пошел с дитем без топора, да и толком не подготовившись-ни еды,ни удобной переноски. В рюкзак мог бы засунуть. В общем угробил дите своей недалекостьюpb.wtf



      Дорогой пользователь! Огромная просьба, поблагодарите релизера, оцените раздачу и оставьте свои комментарий, если Вы скачали Находка через торрент бесплатно! Внесите свою лепту в развитие PiratBit!
      Комментировать посты могут только пользователи прошедшие не сложную регистрацию
      Показать сообщения:    

      Находка через торрент
      Скачать бесплатно Находка
      Находка скачать торрент
      Находка смотреть онлайн
      Cкачать фильм Находка бесплатно
      Находка скачать торрент в хорошем качестве
      Находка смотреть онлайн бесплатно в хорошем качестве


      Вы не можете начинать темы
      Вы не можете отвечать на сообщения
      Вы не можете редактировать свои сообщения
      Вы не можете удалять свои сообщения
      Вы не можете голосовать в опросах
      Вы не можете прикреплять файлы к сообщениям
      Вы можете скачивать файлы