Ссылка на приватное зеркало нашего сайта всего за 1$. Внимание количество ограничено!!!

2 сезон

iTunes

1 сезон

1

iTunes

iTunes

iTunes

1 сезон

RePack

30

ИГРА 18+

pack

ВАЖНО

!!Акция!!

Alien_RageХит недели

RePack

MK11
pack

Забери бонус

RePack

jed

!!Акция!!

Alien_Rage

RePack

fifa19

RePack

Assassins Creed: Odyssey

RePack

NEED FOR SPEED™ PAYBACK

4 сезон

9 сезон

Бесстыжие 9 сезон

Все сериалы

все сериалы на PB.wtf

RePack

FAR CRY 5
  

Стажёр / The Intern (Нэнси Майерс) [2015 г., мелодрама, комедия, HDRip, Дубляж (iTunes)] от R.G. Resident pb.wtf

Стажёр через торрент pb.wtf

Качают: 1 [ 0 KB/s ]
Размер: 2.17 GB | Добавлен: 4 года 9 мес. назад | Торрент скачан:321 раз
Скачать  

09-01-2016 09:36 Стажёр Скачать торрент  

Стажёр / The InternГод выпуска: 2015
Страна: США
Жанр: мелодрама, комедия
Продолжительность: 02:01:32
Перевод: Дубляж | iTunes
Субтитры: Нет

Режиссер: Нэнси Майерс
Продюссер: Сюзанн МакНейлл Фаруелл, Нэнси Майерс, Селия Д. Костас
Сценарий: Нэнси Майерс

Бюджет: $35 000 000
Премьера в мире: 15 сентября 2015



В ролях: Роберт Де Ниро, Энн Хэтэуэй, Рене Руссо, Андерс Холм, ДжоДжо Кушнер, Эндрю Рэннеллс, Адам Дивайн, Илан Кригсфелд, Зак Перлман, Джейсон Орли, Александр Клюквин, Татьяна Шитова, Ольга Плетнёва, Иван Калинин, Илья Бледный

Описание: 70-летний вдовец Бен Уитакер обнаруживает, что выход на пенсию — еще не конец. Пользуясь случаем, он становится старшим стажером в интернет-магазине модной одежды под руководством Джулс Остин.

Качество: HDRip | BDRip 1080p
Формат: AVI
Видео кодек: XviD
Аудио кодек: AC3
Видео: 704x400 (1.76:1), 23.976 fps, XviD build 73 ~2164 kbps avg, 0.32 bit/pixel
Аудио: 48 kHz, AC3 Dolby Digital, 3/2 (L,C,R,l,r) + LFE ch, ~384 kbps



Автор рипа: Dean24
| | R.G. Resident
Общее
Полное имя : D:\Мои документы\Фильмы\Сайт\The.Intern.HDRip.avi
Формат : AVI
Формат/Информация : Audio Video Interleave
Профиль формата : OpenDML
Размер файла : 2,17 Гбайт
Продолжительность : 2 ч. 1 м.
Общий поток : 2556 Кбит/сек
Программа кодирования : VirtualDubMod 1.5.10.3 | www.virtualdub-fr.org || (build 2550/release)
Библиотека кодирования : VirtualDubMod build 2550/release

Видео
Идентификатор : 0
Формат : MPEG-4 Visual
Профиль формата : Advanced Simple@L5
Параметр BVOP формата : 3
Параметр QPel формата : Нет
Параметр GMC формата : Без точки перехода
Параметр матрицы формата : Default (H.263)
Идентификатор кодека : XVID
Идентификатор кодека/Подсказка : XviD
Продолжительность : 2 ч. 1 м.
Битрейт : 2160 Кбит/сек
Ширина : 704 пикселя
Высота : 400 пикселей
Соотношение сторон : 16:9
Частота кадров : 23,976 кадра/сек
Цветовое пространство : YUV
Субдискретизация насыщенности : 4:2:0
Битовая глубина : 8 бит
Тип развёртки : Прогрессивная
Метод сжатия : С потерями
Бит/(Пиксели*Кадры) : 0.320
Размер потока : 1,83 Гбайт (85%)
Библиотека кодирования : XviD 73

Аудио
Идентификатор : 1
Формат : AC-3
Формат/Информация : Audio Coding 3
Расширение режима : CM (complete main)
Параметр Endianness формата : Big
Идентификатор кодека : 2000
Продолжительность : 2 ч. 1 м.
Вид битрейта : Постоянный
Битрейт : 384 Кбит/сек
Каналы : 6 каналов
Расположение каналов : Front: L C R, Side: L R, LFE
Частота : 48,0 КГц
Битовая глубина : 16 бит
Метод сжатия : С потерями
Размер потока : 334 Мбайт (15%)
Выравнивание : Разделение по промежуткам
Продолжительность промежутка : 42 мс. (1,00 видеокадр)
Время предзагрузки промежутка : 500 мс.

pb.wtf



Скачать Стажёр через торрент http://i66.fastpic.ru/big/2016/0109/13/54a4299be663b9e776ff53176a348c13.png Скачать фильм Стажёр через торрент бесплантно в хорошем качестве Описание: 70-летний вдовец Бен Уитакер обнаруживает, что выход на пенсию — еще не конец. Пользуясь случаем, он становится старшим стажером ... 10 10 9
Info! Золотая раздача, скачанное не засчитывается.
Торрент: Зарегистрирован [2016-01-09 09:36] · скачан: 321 раз
Статус: √ проверено
Размер: 2.17 GB
Как cкачать? Как скачать Стажёр через торрент | qTorrent

% Раздел Тема Автор DL S | L
R.G. Resident & PiratVoice - Фильмы, Видео [ 2.66 GB ] Стажёр / The Intern [2015 WEB-DLRip-AVC - ] От R.G.Resident White Smoke Скачать
1 | 0

28-11-2019 20:33  

Отключить всю рекламу на сайте

09-01-2016 09:53 Стажёр Скачать торрент  

pb.wtf



09-01-2016 14:14 Стажёр Скачать торрент  

Хороший добрый фильм без какого-либо экшена. Сейчас такое кино - редкость. 5+pb.wtf



    Дорогой пользователь! Огромная просьба, поблагодарите релизера, оцените раздачу и оставьте свои комментарий, если Вы скачали Стажёр через торрент бесплатно! Внесите свою лепту в развитие PiratBit!
    Комментировать посты могут только пользователи прошедшие не сложную регистрацию
    Показать сообщения:    

    Стажёр через торрент
    Скачать бесплатно Стажёр
    Стажёр скачать торрент
    Стажёр смотреть онлайн
    Cкачать фильм Стажёр бесплатно
    Стажёр скачать торрент в хорошем качестве
    Стажёр смотреть онлайн бесплатно в хорошем качестве


    Вы не можете начинать темы
    Вы не можете отвечать на сообщения
    Вы не можете редактировать свои сообщения
    Вы не можете удалять свои сообщения
    Вы не можете голосовать в опросах
    Вы не можете прикреплять файлы к сообщениям
    Вы можете скачивать файлы