1 сезон

1 сезон

iTunes

1

КиноПоиск HD

Кинопоиск HD

iTunes

13

1 сезон

RePack

30

Новинка

ВАЖНО

ИГРА 18+

pack

RePack

MK11
pack

Легкие деньги

RePack

jed

RePack

fifa19

RePack

RDR2

RePack

NEED FOR SPEED™ PAYBACK

4 сезон

9 сезон

Бесстыжие 9 сезон

Все сериалы

все сериалы на PB.wtf

RePack

FAR CRY 5
  
Magnet ссылка

Голубая волна / Blue Crush (Джон Стокуэлл) [2002, драма, мелодрама, спорт, BDRip AVC by msltel] MVO pb.wtf

Голубая волна через торрент pb.wtf

Размер: 2.64 GB | Добавлен: 5 лет 3 мес. назад | Торрент скачан:24 раза
Скачать  

10-01-2016 10:06 Голубая волна Скачать торрент  

Название: Голубая волна
Оригинальное название: Blue Crush
Год выпуска: 2002
Страна: США, Германия
Жанр: драма, мелодрама, спорт
Продолжительность: 01:44:18
Перевод: профессиональный многоголосый

Режиссёр: Джон Стокуэлл

В ролях: Кейт Босворт, Мэттью Дэвис, Мишель Родригес, Сано Лэйк, Мика Бурем, Крис Талоа, Кала Александр, Рубен Техада, Каупена Миранда, Аса Аквино, Фэйзон Лав, Шон Робинсон, Пол Хаттер, Тамайо Перри, Джеймс Грант Бентон, Блоссом Лам, Денис Би, Алана Мокк, Джейсон Кастилло, Ким Чипмэн, Тара Свитт, Донна Перри, Сонни Миллер, Кэрол Энн Филипс, Брайан Л. Киулана, Кай Гарсиа, Чад Лерма, Дарен Винсон Кроуфорд

Описание: В одном из самых красивейших уголков земли, на Гавайях, в домике на пляже живут три подруги Энни, Эден и Лина. Днём девушки работают горничными в одной шикарной гостинице, а всё своё свободное время отдают серфингу. Покоряя волны, они скользят по поверхности океана на своих досках, но Энни этого мало. Она собирается получить ещё большую порцию адреналина, приняв участие в соревнованиях мастеров-серфингистов. Всё идёт хорошо, пока не появляется Мэтт Толлман — парень, метящий в чемпионы. Хорошо это или нет, но Энни начинает терять «равновесие» и. .. влюбляется в Мэтта...



Качество: BDRip AVC Сравнение с исходником
Формат: MKV
Видео: MPEG-4 AVC, 2977 Kбит/с, 1024х554, 23,976 кадра/с
Аудио 1: русский, AC3, 192 kbps, 2 ch, 48 kHz [профессиональный многоголосый]
Аудио 2: английский, AC3, 448 kbps, 6 ch, 48 kHz [оригинал]
Субтитры 1: русские
Субтитры 2: английские (для слабослышащих)
Общее
Уникальный идентификатор : 173306054887873653793060243757525689262 (0x826188356D13F7039EE4E42A9B24E3AE)
Полное имя : D:\Video\Голубая волна.2002.BDRip.AVC.mkv
Формат : Matroska
Версия формата : Version 4 / Version 2
Размер файла : 2,64 Гбайт
Продолжительность : 1 ч. 44 м.
Общий поток : 3620 Кбит/сек
Дата кодирования : UTC 2016-01-09 13:03:50
Программа кодирования : mkvmerge v8.2.0 ('World of Adventure') 64bit
Библиотека кодирования : libebml v1.3.1 + libmatroska v1.4.2

Видео
Идентификатор : 1
Формат : AVC
Формат/Информация : Advanced Video Codec
Профиль формата : High@L4.1
Параметр CABAC формата : Да
Параметр ReFrames формата : 9 кадров
Идентификатор кодека : V_MPEG4/ISO/AVC
Продолжительность : 1 ч. 44 м.
Битрейт : 2977 Кбит/сек
Ширина : 1024 пикселя
Высота : 554 пикселя
Соотношение сторон : 1,85:1
Режим частоты кадров : Постоянный
Частота кадров : 23,976 (24000/1001) кадра/сек
Цветовое пространство : YUV
Субдискретизация насыщенности : 4:2:0
Битовая глубина : 8 бит
Тип развёртки : Прогрессивная
Бит/(Пиксели*Кадры) : 0.219
Размер потока : 2,17 Гбайт (82%)
Библиотека кодирования : x264 core 146 r2538 121396c
Настройки программы : cabac=1 / ref=9 / deblock=1:-1:-1 / analyse=0x3:0x113 / me=umh / subme=10 / psy=1 / psy_rd=1.00:0.15 / mixed_ref=1 / me_range=32 / chroma_me=1 / trellis=2 / 8x8dct=1 / cqm=0 / deadzone=21,11 / fast_pskip=1 / chroma_qp_offset=-3 / threads=6 / lookahead_threads=1 / sliced_threads=0 / nr=0 / decimate=1 / interlaced=0 / bluray_compat=0 / constrained_intra=0 / bframes=8 / b_pyramid=2 / b_adapt=2 / b_bias=0 / direct=1 / weightb=1 / open_gop=0 / weightp=2 / keyint=230 / keyint_min=23 / scenecut=40 / intra_refresh=0 / rc_lookahead=40 / rc=crf / mbtree=0 / crf=19.8 / qcomp=0.60 / qpmin=0 / qpmax=69 / qpstep=4 / vbv_maxrate=40000 / vbv_bufsize=50000 / crf_max=0.0 / nal_hrd=none / filler=0 / ip_ratio=1.40 / pb_ratio=1.30 / aq=1:1.00
Язык : English
Default : Да
Forced : Нет

Аудио #1
Идентификатор : 2
Формат : AC-3
Формат/Информация : Audio Coding 3
Расширение режима : CM (complete main)
Параметр Endianness формата : Big
Идентификатор кодека : A_AC3
Продолжительность : 1 ч. 44 м.
Вид битрейта : Постоянный
Битрейт : 192 Кбит/сек
Каналы : 2 канала
Расположение каналов : Front: L R
Частота : 48,0 КГц
Частота кадров : 31,250 кадров/сек (1536 spf)
Метод сжатия : С потерями
Размер потока : 143 Мбайт (5%)
Заголовок : MVO
Язык : Russian
Default : Да
Forced : Нет

Аудио #2
Идентификатор : 3
Формат : AC-3
Формат/Информация : Audio Coding 3
Расширение режима : CM (complete main)
Параметр Endianness формата : Big
Идентификатор кодека : A_AC3
Продолжительность : 1 ч. 44 м.
Вид битрейта : Постоянный
Битрейт : 448 Кбит/сек
Каналы : 6 каналов
Расположение каналов : Front: L C R, Side: L R, LFE
Частота : 48,0 КГц
Частота кадров : 31,250 кадров/сек (1536 spf)
Метод сжатия : С потерями
Размер потока : 334 Мбайт (12%)
Заголовок : Original
Язык : English
Default : Нет
Forced : Нет

Текст #1
Идентификатор : 4
Формат : UTF-8
Идентификатор кодека : S_TEXT/UTF8
Идентификатор кодека/Информация : UTF-8 Plain Text
Продолжительность : 1 ч. 43 м.
Битрейт : 103 бит/сек
Count of elements : 1176
Размер потока : 78,4 Кбайт (0%)
Заголовок : русский
Язык : Russian
Default : Нет
Forced : Нет

Текст #2
Идентификатор : 5
Формат : UTF-8
Идентификатор кодека : S_TEXT/UTF8
Идентификатор кодека/Информация : UTF-8 Plain Text
Продолжительность : 1 ч. 38 м.
Битрейт : 75 бит/сек
Count of elements : 1405
Размер потока : 54,0 Кбайт (0%)
Заголовок : английский (для слабослышащих)
Default : Нет
Forced : Нет
pb.wtf



Скачать Голубая волна через торрент http://s011.radikal.ru/i318/1601/2e/5b2be3dbc876.png Скачать фильм Голубая волна через торрент бесплантно в хорошем качестве Описание: В одном из самых красивейших уголков земли, на Гавайях, в домике на пляже живут три подруги Энни, Эден и Лина. Днём девушки ... 5 10 1
Info! Золотая раздача, скачанное не засчитывается.
Торрент: Зарегистрирован [2016-01-10 10:06] · скачан: 24 раз
Статус: √ проверено
Размер: 2.64 GB
Как cкачать? Как скачать Голубая волна через торрент | UTorrent

% Раздел Тема Автор DL S | L
Фильмы [HD 720p, 1080p] (Хороший звук DUB, MVO) [ 9.79 GB ] Голубая волна / Blue Crush [2002 BDRip 1080p by msltel] MVO msltel Скачать
1 | 0
Фильмы [HD 720p, 1080p] (Хороший звук DUB, MVO) [ 4.01 GB ] Голубая волна / Blue Crush [2002 BDRip 720p by msltel] MVO msltel Скачать
1 | 0

28-11-2019 20:33  

Отключить всю рекламу на сайте

    Дорогой пользователь! Огромная просьба, поблагодарите релизера, оцените раздачу и оставьте свои комментарий, если Вы скачали Голубая волна через торрент бесплатно! Внесите свою лепту в развитие PiratBit!
    Комментировать посты могут только пользователи прошедшие не сложную регистрацию
    Показать сообщения:    

    Голубая волна через торрент
    Скачать бесплатно Голубая волна
    Голубая волна скачать торрент
    Голубая волна смотреть онлайн
    Cкачать фильм Голубая волна бесплатно
    Голубая волна скачать торрент в хорошем качестве
    Голубая волна смотреть онлайн бесплатно в хорошем качестве


    Вы не можете начинать темы
    Вы не можете отвечать на сообщения
    Вы не можете редактировать свои сообщения
    Вы не можете удалять свои сообщения
    Вы не можете голосовать в опросах
    Вы не можете прикреплять файлы к сообщениям
    Вы можете скачивать файлы