новый адрес
Ссылка на приватное зеркало всего за 1$. Внимание количество ограничено!!!

iTunes

1+1

iTunes

мы

WEB-DL

1

iTunes

Чернобыль

iTunes

Ральф против интернета

Лицензия

ПШазам

Лицензия

Оно 2

Лицензия

30
pack

Вам бонус

ВАЖНО

!!Акция!!

Alien_RageХит недели

RePack

Resident Evil 21

ИГРА 18+

pack

RePack

jed

!!Акция!!

Alien_Rage

RePack

fifa19

RePack

Assassins Creed: Odyssey

RePack

NEED FOR SPEED™ PAYBACK

3 сезон

9 сезон

Бесстыжие 9 сезон

Все сериалы

все сериалы на PB.wtf

RePack

FAR CRY 5
Ребята, катастрофически не хватает 1900р. для оплаты серверов за Октябрь (всвязи с блокировками трафик упал в 3 раза), 1-2р., выручайте.
  

Сельский врач ( Сергей Герасимов) [1952, СССР, драма, DVDRip от AVP Studio] pb.wtf

Сельский врач через торрент pb.wtf

Раздают: 2 [ 0 KB/s ]
Размер: 1.46 GB | Добавлен: 3 года 10 мес. назад | Торрент скачан:22 раза
Скачать  

10-01-2016 10:12 Сельский врач Скачать торрент  

Сельский врач
Страна: СССР
Производство: Киностудия им. Горького

Жанр: драма
Год выпуска: 1952
Продолжительность: 01:46:32

Перевод: Не требуется
Cубтитры: нет
Оригинальная аудиодорожка: русский

Режиссер: Сергей Герасимов

В ролях:
Тамара Макарова, Григорий Белов, Всеволод Санаев, Василий Капустин, Иван Кузнецов, Анатолий Дудоров, Александр Смирнов, Виктор Ключарев, Александра Панова, Инна Макарова, Олеся Иванова, Клавдия Хабарова, Александра Харитонова, Владимир Гуляев, Николай Сморчков...
Полный список актёров

Описание:
Выпускница медицинского института Татьяна Казакова приезжает по распределению в село Горячие Ключи и намерена доказать свою профпригодность маленькому (село то — в тридцати километрах от райцентра), но достаточно профессиональному коллективу больницы, которую возглавляет 70-летний доктор Арсеньев, острый ум и чрезмерная недоверчивость которого становятся основной причиной недолгого раздора между коллегами.

Источник: DVD9 R5
Качество видео: DVDRip
Формат видео: AVI

Видео: 688x512 (4:3), 25 fps, XviD ~ 1757 kbps avg, 0.199 bit/pixel
Аудио: 48 kHz, Dolby Digital AC3 2.0, 192 kbps

Раздача от:
Общее
Полное имя : E:\Tracker\2015\Сельский врач\Selskiy.vrach.1952.DVDRip_[New-team]_by_AVP_Studio.avi
Формат : AVI
Формат/Информация : Audio Video Interleave
Размер файла : 1,46 Гбайт
Продолжительность : 1 ч. 46 м.
Общий поток : 1959 Кбит/сек
Программа кодирования : VirtualDubMod 1.5.10.3 | www.virtualdub-fr.org || (build 2550/release)
Библиотека кодирования : VirtualDubMod build 2550/release

Видео
Идентификатор : 0
Формат : MPEG-4 Visual
Профиль формата : Advanced Simple@L5
Параметр BVOP формата : 1
Параметр QPel формата : Нет
Параметр GMC формата : Без точки перехода
Параметр матрицы формата : Выборочная
Идентификатор кодека : XVID
Идентификатор кодека/Подсказка : XviD
Продолжительность : 1 ч. 46 м.
Битрейт : 1757 Кбит/сек
Ширина : 688 пикселей
Высота : 512 пикселей
Соотношение сторон : 4:3
Частота кадров : 25,000 кадров/сек
Цветовое пространство : YUV
Субдискретизация насыщенности : 4:2:0
Битовая глубина : 8 бит
Тип развёртки : Прогрессивная
Метод сжатия : С потерями
Бит/(Пиксели*Кадры) : 0.199
Размер потока : 1,31 Гбайт (90%)
Библиотека кодирования : XviD 1.2.1 (UTC 2008-12-04)

Аудио
Идентификатор : 1
Формат : AC-3
Формат/Информация : Audio Coding 3
Расширение режима : CM (complete main)
Параметр Endianness формата : Big
Идентификатор кодека : 2000
Продолжительность : 1 ч. 46 м.
Вид битрейта : Постоянный
Битрейт : 192 Кбит/сек
Каналы : 2 канала
Расположение каналов : Front: L R
Частота : 48,0 КГц
Метод сжатия : С потерями
Размер потока : 146 Мбайт (10%)
Выравнивание : Разделение по промежуткам
Продолжительность промежутка : 40 мс. (1,00 видеокадр)
Время предзагрузки промежутка : 500 мс
pb.wtf



Скачать Сельский врач через торрент http://s019.radikal.ru/i638/1601/6d/26c3e1358c18.png Скачать фильм Сельский врач через торрент бесплантно в хорошем качестве Описание:Выпускница медицинского института Татьяна Казакова приезжает по распределению в село Горячие Ключи и намерена доказать свою ... 10 10 1
Info! Золотая раздача, скачанное не засчитывается.
Торрент: Зарегистрирован [2016-01-10 10:43] · скачан: 22 раз
Статус: √ проверено
Размер: 1.46 GB
Как cкачать? Как скачать Сельский врач через торрент | qTorrent

% Раздел Тема Автор DL S | L
Кино СССР [ 1.46 GB ] Сельский врач [1952 СССР DVDRip-AVC от AVP Studio] AVP Studio Скачать
1 | 0
Кино СССР [ 746 MB ] Сельский врач [1952 СССР DVDRip от AVP Studio] AVP Studio Скачать
1 | 0

28-11-2019 20:33  

Отключить всю рекламу на сайте


    Дорогой пользователь! Огромная просьба, поблагодарите релизера, оцените раздачу и оставьте свои комментарий, если Вы скачали Сельский врач через торрент бесплатно! Внесите свою лепту в развитие PiratBit!
    Комментировать посты могут только пользователи прошедшие не сложную регистрацию
    Показать сообщения:    

    Сельский врач через торрент
    Скачать бесплатно Сельский врач
    Сельский врач скачать торрент
    Сельский врач смотреть онлайн
    Cкачать фильм Сельский врач бесплатно
    Сельский врач скачать торрент в хорошем качестве
    Сельский врач смотреть онлайн бесплатно в хорошем качестве


    Вы не можете начинать темы
    Вы не можете отвечать на сообщения
    Вы не можете редактировать свои сообщения
    Вы не можете удалять свои сообщения
    Вы не можете голосовать в опросах
    Вы не можете прикреплять файлы к сообщениям
    Вы можете скачивать файлы