Ссылка на приватное зеркало всего за 1$. Внимание количество ограничено!!!

iTunes

iTunes

iTunes

1

iTunes

iTunes

iTunes

iTunes

iTunes

30
pack

$ от Little Big

ВАЖНО

!!Акция!!

Alien_RageХит недели

RePack

Resident Evil 21

ИГРА 18+

pack

RePack

jed

!!Акция!!

Alien_Rage

RePack

fifa19

RePack

Assassins Creed: Odyssey

RePack

NEED FOR SPEED™ PAYBACK

4 сезон

9 сезон

Бесстыжие 9 сезон

Все сериалы

все сериалы на PB.wtf

RePack

FAR CRY 5
  

Парни из Эссекса / Essex Boys (Терри Уинзор) [2000, Триллер, Криминал, WEB-DL 720p] MVO pb.wtf

Парни из Эссекса через торрент pb.wtf

Размер: 3.33 GB | Добавлен: 4 года 5 мес. назад | Торрент скачан:119 раз
Скачать  

10-01-2016 11:00 Парни из Эссекса Скачать торрент  


Парни из Эссекса / Essex Boys




Год выпуска: 2000
Страна: Великобритания, Granada Film Productions
Жанр: Триллер, криминал
Продолжительность: 01:42:32
Перевод: Профессиональный (многоголосый)
Реклама: В релизе отсутствуют рекламные видео и аудио вставки




Режиссер: Терри Уинзор
Продюссер: Джефф Поуп, Пиппа Кросс, Пол Фрифт
Оператор: Джон Дэйли
Композитор: Колин Таунз
Художники: Крис Эдвардс, Тим Стивенсон, Сара Лубель
Монтаж: Эдвард Мэнселл
Сценарий: Джефф Поуп, Терри Уинзор




Премьера в мире: 14 июля 2000









В ролях:

Чарли Крид-Майлз, Шон Бин, Гарет Милн, Алекс Кингстон, Амелия Лауделл, Ларри Ламб, Майкл МакКелл, Холли Дэвидсон, Теренс Ригби, Том Уилкинсон, Билли Мюррэй, Гари Лав, Филип Ховард




Описание: Наркотики, соблазн, предательство Джейсон Лок недавно вышел из тюрьмы и возвращается в город, чтобы снова взять контроль над улицами Эссекса, в свои руки.. Он - подозрительный и неуловимый человек, который не доверяет никому, даже своей собственное жене.. Однако, восстановить свое былое влияние на улицах Эссекса теперь будет очень не просто..




Качество: WEB-DL 720р
Формат: MKV
Видео кодек: AVC
Аудио кодек: AC3
Видео: 1280x716, AVC, 23.976 fps, 3979 kbps
Аудио#1: Русский - AC3, 2 ch, 48.0 kHz, 192 kbps
Аудио#2: Английский - AC3, 6 ch, 48.0 kHz, 384 kbps
Субтитры: Английские, SDH






  • Фильм основан на реальном событии, которое произошло в Эссексе в декабре 1995 года.. В 15 милях от Саутенда, в автомобиле марки «Рейндж Ровер» были найдены убитыми три наркоторговца.. Это убийство послужило отправной точкой для написания сценария..

  • Фильм практически полностью снимался в Эссексе, за исключением небольшой сцены в самом начале фильма, в которой персонаж Шона Бина избивает информатора.. Съемки проходили с 28 февраля по 26 апреля 1999 года..

  • Терри Уинзор и Джефф Поуп ездили по графству в поисках мест, идеально соответствующих настроению фильма.. Они также наблюдали за местными жителями, пытаясь уловить, как они разговаривают и двигаются.. Все статисты в фильме были из Эссекса, команду по возможности тоже набирали из местных жителей..


  • Поскольку в Эссексе не было киностудии, для студийных съемок использовалась заброшенная обувная фабрика..

  • Играя Лока, Шону Бину пришлось имитировать эссекский акцент..
  • скриншот  скриншот  скриншот  скриншот  скриншот  
    General
    Unique ID : 177448473694377749986326925501702546344 (0x857F55396B0B347B8195E551574723A8)
    Complete name : D:\Essex_boys.mkv
    Format : Matroska
    Format version : Version 4 / Version 2
    File size : 3.33 GiB
    Duration : 1h 42mn
    Overall bit rate : 4 648 Kbps
    Movie name : Essex Boys (2000)
    Encoded date : UTC 2016-01-03 14:12:15
    Writing application : mkvmerge v8.2.0 ('World of Adventure') 32bit
    Writing library : libebml v1.3.1 + libmatroska v1.4.2
    Attachements : cover_land.jpg / small_cover.jpg / small_cover_land.jpg / cover.jpg
    Video #1
    ID : 1
    Format : AVC
    Format/Info : Advanced Video Codec
    Format profile : High@L3.1
    Format settings, CABAC : No
    Format settings, ReFrames : 2 frames
    Codec ID : V_MPEG4/ISO/AVC
    Duration : 1h 42mn
    Bit rate : 3 979 Kbps
    Width : 1 280 pixels
    Height : 716 pixels
    Display aspect ratio : 16:9
    Frame rate mode : Constant
    Frame rate : 23.976 fps
    Color space : YUV
    Chroma subsampling : 4:2:0
    Bit depth : 8 bits
    Scan type : Progressive
    Bits/(Pixel*Frame) : 0.181
    Stream size : 2.85 GiB (86%)
    Language : English
    Default : Yes
    Forced : No
    Color range : Limited
    Color primaries : BT.709
    Transfer characteristics : BT.709
    Matrix coefficients : BT.709
    Audio #2
    ID : 2
    Format : AC-3
    Format/Info : Audio Coding 3
    Mode extension : CM (complete main)
    Format settings, Endianness : Big
    Codec ID : A_AC3
    Duration : 1h 42mn
    Bit rate mode : Constant
    Bit rate : 192 Kbps
    Channel(s) : 2 channels
    Channel positions : Front: L R
    Sampling rate : 48.0 KHz
    Compression mode : Lossy
    Stream size : 141 MiB (4%)
    Title : AC3 2.0ch 192kbps - трёхголосый (ТВ)
    Language : Russian
    Default : Yes
    Forced : No
    Audio #3
    ID : 3
    Format : AC-3
    Format/Info : Audio Coding 3
    Mode extension : CM (complete main)
    Format settings, Endianness : Big
    Codec ID : A_AC3
    Duration : 1h 42mn
    Bit rate mode : Constant
    Bit rate : 384 Kbps
    Channel(s) : 6 channels
    Channel positions : Front: L C R, Side: L R, LFE
    Sampling rate : 48.0 KHz
    Compression mode : Lossy
    Stream size : 282 MiB (8%)
    Title : AC3 6ch 384kbps - original
    Language : English
    Default : No
    Forced : No
    Text #4
    ID : 4
    Format : UTF-8
    Codec ID : S_TEXT/UTF8
    Codec ID/Info : UTF-8 Plain Text
    Language : English
    Default : No
    Forced : No
    Text #5
    ID : 5
    Format : UTF-8
    Codec ID : S_TEXT/UTF8
    Codec ID/Info : UTF-8 Plain Text
    Title : SDH
    Language : English
    Default : No
    Forced : No




    pb.wtf



    Скачать Парни из Эссекса через торрент http://torrent.qwerty.ru/descimages/1/153396.jpg Скачать фильм Парни из Эссекса через торрент бесплантно в хорошем качестве Описание: Наркотики, соблазн, предательство Джейсон Лок недавно вышел из тюрьмы и возвращается в город, чтобы снова взять контроль над ... 8.5 10 6
    Info! Серебряная раздача, засчитывается только 50% скачанного.
    Торрент: Зарегистрирован [2016-01-10 11:00] · скачан: 119 раз
    Статус: √ проверено
    Размер: 3.33 GB
    Как cкачать? Как скачать Парни из Эссекса через торрент | qTorrent

    28-11-2019 20:33  

    Отключить всю рекламу на сайте

      Дорогой пользователь! Огромная просьба, поблагодарите релизера, оцените раздачу и оставьте свои комментарий, если Вы скачали Парни из Эссекса через торрент бесплатно! Внесите свою лепту в развитие PiratBit!
      Комментировать посты могут только пользователи прошедшие не сложную регистрацию
      Показать сообщения:    

      Парни из Эссекса через торрент
      Скачать бесплатно Парни из Эссекса
      Парни из Эссекса скачать торрент
      Парни из Эссекса смотреть онлайн
      Cкачать фильм Парни из Эссекса бесплатно
      Парни из Эссекса скачать торрент в хорошем качестве
      Парни из Эссекса смотреть онлайн бесплатно в хорошем качестве


      Вы не можете начинать темы
      Вы не можете отвечать на сообщения
      Вы не можете редактировать свои сообщения
      Вы не можете удалять свои сообщения
      Вы не можете голосовать в опросах
      Вы не можете прикреплять файлы к сообщениям
      Вы можете скачивать файлы