Ссылка на приватное зеркало нашего сайта всего за 1$. Внимание количество ограничено!!!

2 сезон

iTunes

iTunes

1

iTunes

iTunes

iTunes

WEBRip

iTunes

30
pack

Вам бонус

ВАЖНО

!!Акция!!

Alien_RageХит недели

RePack

Horizon Zero Dawn

ИГРА 18+

pack

RePack

jed

!!Акция!!

Alien_Rage

RePack

fifa19

RePack

Assassins Creed: Odyssey

RePack

NEED FOR SPEED™ PAYBACK

4 сезон

9 сезон

Бесстыжие 9 сезон

Все сериалы

все сериалы на PB.wtf

RePack

FAR CRY 5
  

Стеклянный подбородок / Glass Chin (Ноа Бушел) [2014, триллер, драма, WEB-DLRip] Любительский (двухголосый) [Parovoz Production] pb.wtf

Стеклянный подбородок через торрент pb.wtf

Размер: 1.46 GB | Добавлен: 4 года 8 мес. назад | Торрент скачан:75 раз
Скачать  

10-01-2016 12:56 Стеклянный подбородок Скачать торрент  

Стеклянный подбородок / Glass Chin«Murder is an art»

  • Год выхода: 2014
  • Жанр: триллер, драма

  • Страна: США
  • Продолжительность: 01:27:53
  • Перевод: Любительский (двухголосый) [Parovoz Production]
  • Режиссер: Ноа Бушел
  • В ролях:

    Дэвид Джохансен (Stanley Loori), Кори Столл (Bud Gordon), Билли Крудап (J.J. Cook), Келли Линч (Mae Graham), Кэтрин Уотерстон (Patricia Petals O'Neal), Элизабет Родригес (Rita Sierra), Марин Айрлэнд (Ellen Doyle), Майкл Чернус (Brian Colby), Брендан Секстон III (Jimmy Musial), Джон Вентимилья (Jack Marchiano), Юл Васкес (Roberto Flash), Рон Сепас Джонс (Ray Ellington)


  • В центре истории окажется бывший чемпион по боксу, который находится перед тяжким, для него выбором: либо дружба, либо его амбиции, и все это на фоне обвинения главного героя в убийстве.

  • Качество: WEB-DLRip
  • Формат: AVI
  • Видео кодек: XviD
  • Аудио кодек: AC3
  • Видео: XviD, 720x384 (1.875), 1985 kbps, 23,976 fps, 0,300 bpp
  • Аудио: AC3 / 2.0 / 48 kHz / 384 kbps / 16 bit

    Код:

    General
    Complete name                            : H:\7teKlyaNn1y.P0dB0r0d0k.2014.L2.WEB-DLRip.1.46GB.avi
    Format                                   : AVI
    Format/Info                              : Audio Video Interleave
    File size                                : 1.46 GiB
    Duration                                 : 1h 27mn
    Overall bit rate                         : 2 379 Kbps
    Writing application                      : VirtualDubMod 1.5.10.3 | www.virtualdub-fr.org || (build 2550/release)
    Writing library                          : VirtualDubMod build 2550/release

    Video
    ID                                       : 0
    Format                                   : MPEG-4 Visual
    Format profile                           : Advanced Simple@L5
    Format settings, BVOP                    : 2
    Format settings, QPel                    : No
    Format settings, GMC                     : No warppoints
    Format settings, Matrix                  : Default (MPEG)
    Codec ID                                 : XVID
    Codec ID/Hint                            : XviD
    Duration                                 : 1h 27mn
    Bit rate                                 : 1 986 Kbps
    Width                                    : 720 pixels
    Height                                   : 384 pixels
    Display aspect ratio                     : 1.875
    Frame rate                               : 23.976 fps
    Color space                              : YUV
    Chroma subsampling                       : 4:2:0
    Bit depth                                : 8 bits
    Scan type                                : Progressive
    Compression mode                         : Lossy
    Bits/(Pixel*Frame)                       : 0.300
    Stream size                              : 1.22 GiB (83%)
    Writing library                          : XviD 1.2.1 (UTC 2008-12-04)

    Audio
    ID                                       : 1
    Format                                   : AC-3
    Format/Info                              : Audio Coding 3
    Mode extension                           : CM (complete main)
    Codec ID                                 : 2000
    Duration                                 : 1h 27mn
    Bit rate mode                            : Constant
    Bit rate                                 : 384 Kbps
    Channel(s)                               : 2 channels
    Channel positions                        : Front: L R
    Sampling rate                            : 48.0 KHz
    Bit depth                                : 16 bits
    Compression mode                         : Lossy
    Stream size                              : 241 MiB (16%)
    Alignment                                : Split accross interleaves
    Interleave, duration                     : 42 ms (1.00 video frame)
    Interleave, preload duration             : 500 ms

    Скриншоты:


    © Оформление by -Lexx- pb.wtf
    !-Lexx- писал(а):

    Внимание, в релизе присутствует реклама казино. Что делать? Ждать когда выложат релиз без этого (в них всегда указанно что релиз без рекламы) либо лицензию. Запретить такие темы нельзя, пока нет альтернативы.



  • Скачать Стеклянный подбородок через торрент http://pic.kartinco.top/images/6/stazu.jpg Скачать фильм Стеклянный подбородок через торрент бесплантно в хорошем качестве qw.png В центре истории окажется бывший чемпион по боксу, который находится перед тяжким, для него выбором: либо дружба, либо его ... 10 10 2
    Торрент: Зарегистрирован [2016-01-10 12:56] · скачан: 75 раз
    Статус: T временная
    Размер: 1.46 GB
    Как cкачать? Как скачать Стеклянный подбородок через торрент | qTorrent

    28-11-2019 20:33  

    Отключить всю рекламу на сайте

      Дорогой пользователь! Огромная просьба, поблагодарите релизера, оцените раздачу и оставьте свои комментарий, если Вы скачали Стеклянный подбородок через торрент бесплатно! Внесите свою лепту в развитие PiratBit!
      Комментировать посты могут только пользователи прошедшие не сложную регистрацию
      Показать сообщения:    

      Стеклянный подбородок через торрент
      Скачать бесплатно Стеклянный подбородок
      Стеклянный подбородок скачать торрент
      Стеклянный подбородок смотреть онлайн
      Cкачать фильм Стеклянный подбородок бесплатно
      Стеклянный подбородок скачать торрент в хорошем качестве
      Стеклянный подбородок смотреть онлайн бесплатно в хорошем качестве


      Вы не можете начинать темы
      Вы не можете отвечать на сообщения
      Вы не можете редактировать свои сообщения
      Вы не можете удалять свои сообщения
      Вы не можете голосовать в опросах
      Вы не можете прикреплять файлы к сообщениям
      Вы можете скачивать файлы