Ссылка на приватное зеркало нашего сайта всего за 1$. Внимание количество ограничено!!!

2 сезон

iTunes

1 сезон

1

iTunes

iTunes

iTunes

1 сезон

RePack

30

ИГРА 18+

pack

ВАЖНО

!!Акция!!

Alien_RageХит недели

RePack

MK11
pack

Забери бонус

RePack

jed

!!Акция!!

Alien_Rage

RePack

fifa19

RePack

Assassins Creed: Odyssey

RePack

NEED FOR SPEED™ PAYBACK

4 сезон

9 сезон

Бесстыжие 9 сезон

Все сериалы

все сериалы на PB.wtf

RePack

FAR CRY 5
  

Бешеный бык / Raging Bull (Мартин Скорсезе) [1980, драма, биография, спорт, BDRip 1080p от еnvy / NNNB] MVO, DVO, AVO pb.wtf

Бешеный бык через торрент pb.wtf

Размер: 11.53 GB | Добавлен: 4 года 9 мес. назад | Торрент скачан:58 раз
Скачать  

10-01-2016 15:19 Бешеный бык Скачать торрент  

Информация о фильме

Русское название: Бешеный бык
Оригинальное название: Raging Bull
Год выхода: 1980
Жанр: драма, биография, спорт
Режиссер: Мартин Скорсезе
Выпущено: США
Продолжительность: 02:09:03
Перевод: Профессиональный многоголосый закадровый, Профессиональный двухголосый закадровый, Авторский одноголосый
В ролях: Роберт Де Ниро, Кэти Мориарти, Джо Пеши, Фрэнк Винсент, Николас Коласанто, Тереза Салдана, Марио Галло, Фрэнк Адонис, Джозеф Боно, Фрэнк Топхэм




Сюжет фильма

Джейк ЛаМотта, получивший прозвище Бронксский Бык, — боксер. И все его психологические и сексуальные комплексы яростно извергаются на боксерском ринге. Под горячую руку ему попадается родной брат, ставший жертвой навязчивой паранойи и ревности Джейка, а также пятнадцатилетняя девочка, которой суждено было стать самой главной наградой Джейка… и преследующим его наваждением.




Файл

Качество: BDRip 1080p (исходник Blu-ray Disc)
Контейнер: MKV (расширение файла)
Видео: 1920x1040, 9990 Кбит/сек, 23,976 кадр/сек, AVC, x264, High@L4.1, 1.85:1, 0.209 Бит/[Пиксели*Кадры]
Аудио 1: AC-3, 448 Кбит/сек, 6 канала(ов), 48,0 КГц - Многоголосый закадровый, R5 / Русский
Аудио 2: AC-3, 192 Кбит/сек, 2 канала(ов), 48,0 КГц - Двухголосый закадровый, SDI Media / Русский
Аудио 3: AC-3, 192 Кбит/сек, 2 канала(ов), 48,0 КГц - Двухголосый закадровый, НТВ+ / Русский
Аудио 4: AC-3, 192 Кбит/сек, 2 канала(ов), 48,0 КГц - Авторский одноголосый, Иванов / Русский
Аудио 5: AC-3, 448 Кбит/сек, 6 канала(ов), 48,0 КГц - Авторский одноголосый, Чадов / Русский
Аудио 6: AC-3, 448 Кбит/сек, 6 канала(ов), 48,0 КГц - Авторский одноголосый, Визгунов / Русский
Аудио 7: AC-3, 448 Кбит/сек, 6 канала(ов), 48,0 КГц - Авторский одноголосый, Сербин / Русский
Аудио 8: AC-3, 448 Кбит/сек, 6 канала(ов), 48,0 КГц - Оригинал / Английский
Субтитры: Русские | Полные, Английские | Полные
Форсированные субтитры: Нет
Чаптеры (Главы): Есть









Автор Рипа: Сообщество:


Код:

Format                      : Matroska
Format version              : Version 2
File size                   : 11.5 GiB
Duration                    : 2h 9mn
Overall bit rate            : 12.8 Mbps
Movie name                  : Бешеный бык.(1980).BDRip.1080p.[envy]
Encoded date                : UTC 2016-01-09 09:03:09
Writing application         : mkvmerge v5.8.0 ('No Sleep / Pillow') built on Sep  2 2012 15:37:04
Writing library             : libebml v1.2.3 + libmatroska v1.3.0

Video
ID                          : 1
Format                      : AVC
Format/Info                 : Advanced Video Codec
Format profile              : High@L4.1
Format settings, CABAC      : Yes
Format settings, ReFrames   : 4 frames
Codec ID                    : V_MPEG4/ISO/AVC
Duration                    : 2h 9mn
Bit rate                    : 9 990 Kbps
Width                       : 1 920 pixels
Height                      : 1 040 pixels
Display aspect ratio        : 1.85:1
Frame rate mode             : Constant
Frame rate                  : 23.976 fps
Color space                 : YUV
Chroma subsampling          : 4:2:0
Bit depth                   : 8 bits
Scan type                   : Progressive
Bits/(Pixel*Frame)          : 0.209
Stream size                 : 8.77 GiB (76%)
Title                       : Бешеный бык.(1980).BDRip.1080p.[envy]
Writing library             : x264 core 148 r2638 7599210
Encoding settings           : cabac=1 / ref=4 / deblock=1:-3:-2 / analyse=0x3:0x133 / me=umh / subme=11 / psy=1 / psy_rd=1.00:0.00 / mixed_ref=1 / me_range=32 / chroma_me=1 / trellis=2 / 8x8dct=1 / cqm=0 / deadzone=21,11 / fast_pskip=0 / chroma_qp_offset=-2 / threads=12 / lookahead_threads=2 / sliced_threads=0 / nr=0 / decimate=1 / interlaced=0 / bluray_compat=0 / constrained_intra=0 / bframes=7 / b_pyramid=2 / b_adapt=2 / b_bias=0 / direct=3 / weightb=1 / open_gop=0 / weightp=2 / keyint=240 / keyint_min=23 / scenecut=40 / intra_refresh=0 / rc=2pass / mbtree=0 / bitrate=9990 / ratetol=2.0 / qcomp=0.60 / qpmin=0 / qpmax=69 / qpstep=4 / cplxblur=20.0 / qblur=0.5 / ip_ratio=1.40 / pb_ratio=1.30 / aq=2:0.70
Language                    : English
Default                     : Yes
Forced                      : No

Audio #1
ID                          : 2
Format                      : AC-3
Format/Info                 : Audio Coding 3
Mode extension              : CM (complete main)
Format settings, Endianness : Big
Codec ID                    : A_AC3
Duration                    : 2h 9mn
Bit rate mode               : Constant
Bit rate                    : 448 Kbps
Channel(s)                  : 6 channels
Channel positions           : Front: L C R, Side: L R, LFE
Sampling rate               : 48.0 KHz
Compression mode            : Lossy
Stream size                 : 414 MiB (4%)
Title                       : MVO
Language                    : Russian
Default                     : Yes
Forced                      : Yes

Audio #2
ID                          : 3
Format                      : AC-3
Format/Info                 : Audio Coding 3
Mode extension              : CM (complete main)
Format settings, Endianness : Big
Codec ID                    : A_AC3
Duration                    : 2h 9mn
Bit rate mode               : Constant
Bit rate                    : 192 Kbps
Channel(s)                  : 2 channels
Channel positions           : Front: L R
Sampling rate               : 48.0 KHz
Compression mode            : Lossy
Stream size                 : 177 MiB (2%)
Title                       : DVO SDI Media
Language                    : Russian
Default                     : No
Forced                      : No

Audio #3
ID                          : 4
Format                      : AC-3
Format/Info                 : Audio Coding 3
Mode extension              : CM (complete main)
Format settings, Endianness : Big
Codec ID                    : A_AC3
Duration                    : 2h 9mn
Bit rate mode               : Constant
Bit rate                    : 192 Kbps
Channel(s)                  : 2 channels
Channel positions           : Front: L R
Sampling rate               : 48.0 KHz
Compression mode            : Lossy
Stream size                 : 177 MiB (2%)
Title                       : DVO НТВ+
Language                    : Russian
Default                     : No
Forced                      : No

Audio #4
ID                          : 5
Format                      : AC-3
Format/Info                 : Audio Coding 3
Mode extension              : CM (complete main)
Format settings, Endianness : Big
Codec ID                    : A_AC3
Duration                    : 2h 9mn
Bit rate mode               : Constant
Bit rate                    : 192 Kbps
Channel(s)                  : 2 channels
Channel positions           : Front: L R
Sampling rate               : 48.0 KHz
Compression mode            : Lossy
Stream size                 : 177 MiB (2%)
Title                       : AVO Ivanov
Language                    : Russian
Default                     : No
Forced                      : No

Audio #5
ID                          : 6
Format                      : AC-3
Format/Info                 : Audio Coding 3
Mode extension              : CM (complete main)
Format settings, Endianness : Big
Codec ID                    : A_AC3
Duration                    : 2h 9mn
Bit rate mode               : Constant
Bit rate                    : 448 Kbps
Channel(s)                  : 6 channels
Channel positions           : Front: L C R, Side: L R, LFE
Sampling rate               : 48.0 KHz
Compression mode            : Lossy
Stream size                 : 414 MiB (4%)
Title                       : AVO Chadov
Language                    : Russian
Default                     : No
Forced                      : No

Audio #6
ID                          : 7
Format                      : AC-3
Format/Info                 : Audio Coding 3
Mode extension              : CM (complete main)
Format settings, Endianness : Big
Codec ID                    : A_AC3
Duration                    : 2h 9mn
Bit rate mode               : Constant
Bit rate                    : 448 Kbps
Channel(s)                  : 6 channels
Channel positions           : Front: L C R, Side: L R, LFE
Sampling rate               : 48.0 KHz
Compression mode            : Lossy
Stream size                 : 414 MiB (4%)
Title                       : AVO Vizgunov
Language                    : Russian
Default                     : No
Forced                      : No

Audio #7
ID                          : 8
Format                      : AC-3
Format/Info                 : Audio Coding 3
Mode extension              : CM (complete main)
Format settings, Endianness : Big
Codec ID                    : A_AC3
Duration                    : 2h 9mn
Bit rate mode               : Constant
Bit rate                    : 448 Kbps
Channel(s)                  : 6 channels
Channel positions           : Front: L C R, Side: L R, LFE
Sampling rate               : 48.0 KHz
Compression mode            : Lossy
Stream size                 : 414 MiB (4%)
Title                       : AVO Serbin
Language                    : Russian
Default                     : No
Forced                      : No

Audio #8
ID                          : 9
Format                      : AC-3
Format/Info                 : Audio Coding 3
Mode extension              : CM (complete main)
Format settings, Endianness : Big
Codec ID                    : A_AC3
Duration                    : 2h 9mn
Bit rate mode               : Constant
Bit rate                    : 448 Kbps
Channel(s)                  : 6 channels
Channel positions           : Front: L C R, Side: L R, LFE
Sampling rate               : 48.0 KHz
Compression mode            : Lossy
Stream size                 : 414 MiB (4%)
Title                       : Eng
Language                    : English
Default                     : No
Forced                      : No

Text #1
ID                          : 10
Format                      : UTF-8
Codec ID                    : S_TEXT/UTF8
Codec ID/Info               : UTF-8 Plain Text
Title                       : Rus Full
Language                    : Russian
Default                     : No
Forced                      : No

Text #2
ID                          : 11
Format                      : UTF-8
Codec ID                    : S_TEXT/UTF8
Codec ID/Info               : UTF-8 Plain Text
Title                       : Eng Full
Language                    : English
Default                     : No
Forced                      : No

Menu
00:00:00.000                : en:Main Title
00:02:52.630                : en:1964: That's Entertainment
00:04:05.286                : en:1941: Pounding Reeves
00:07:40.960                : en:A Talk with the Animal
00:11:26.519                : en:"Hit Me in the Face"
00:15:04.153                : en:Unwelcome Spectators
00:17:14.241                : en:Vickie By the Pool
00:24:06.570                : en:A Date with the Champ
00:26:54.738                : en:Sitting a Little Closer
00:31:23.715                : en:1943: Sugar Ray Robinson
00:33:19.455                : en:Kissing It Better
00:38:03.864                : en:1943: Robinson for the 3
00:41:16.724                : en:Fights and Home Movies
00:43:51.211                : en:1947: A Win-Win Plan
00:49:29.216                : en:Watchful Eye on Vickie
00:57:01.376                : en:Janiro - Pretty No More
00:59:03.581                : en:"Nothing Goin; on?"
01:03:01.486                : en:A Lack of Respect
01:06:27.191                : en:"I Just Wanna Catch Her"
01:09:14.567                : en:1947: Going Down for Fox
01:13:40.416                : en:1949: Slapped in the Face
01:18:21.655                : en:Attack on Cerdan
01:22:05.837                : en:1950: A Crazy Question
01:28:30.388                : en:Fat Pig Selfish Fool
01:33:53.586                : en:Dauthuille: The Comeback
01:37:07.279                : en:Last Time with Sugar Ray
01:41:34.046                : en:1956: Happy and Retired
01:42:52.416                : en:Raging Entertainer
01:48:17.991                : en:"I'm Leaving You, Jake"
01:50:31.750                : en:Not a 14-Year-Old
01:52:08.805                : en:$10,000 From the Belt
01:53:58.623                : en:1957: Fist on Concrete
01:57:06.853                : en:1958: A Joke for a Drink
01:58:57.755                : en:No Friend in Joey
02:01:02.630                : en:Coulda Been a Contender
02:03:57.430                : en:"Now I Can See""/Credits


pb.wtf



Скачать Бешеный бык через торрент http://2.firepic.org/images/2016-01/10/sxdvw5lf0d0l.png Скачать фильм Бешеный бык через торрент бесплантно в хорошем качестве В ролях: Роберт Де Ниро, Кэти Мориарти, Джо Пеши, Фрэнк Винсент, Николас Коласанто, Тереза Салдана, Марио Галло, Фрэнк Адонис, Джозеф Боно, ... 5 10 3
Info! Золотая раздача, скачанное не засчитывается.
Торрент: Зарегистрирован [2016-01-10 15:19] · скачан: 58 раз
Статус: √ проверено
Размер: 11.53 GB
Как cкачать? Как скачать Бешеный бык через торрент | qTorrent

28-11-2019 20:33  

Отключить всю рекламу на сайте

10-01-2016 15:41 Бешеный бык Скачать торрент  

фильм что чб? даже в совке в 80х уже цветные снимали)pb.wtf



10-01-2016 16:03 Бешеный бык Скачать торрент  

mrAmerica писал(а):

фильм что чб? даже в совке в 80х уже цветные снимали)

Фильм просто так снят.
Когда воспоминания у героя то их показывают в цвете..)))pb.wtf



10-01-2016 18:30 Бешеный бык Скачать торрент  

а я уж подумал, скорсезе цветную не мог себе ещё позволить )pb.wtf



    Дорогой пользователь! Огромная просьба, поблагодарите релизера, оцените раздачу и оставьте свои комментарий, если Вы скачали Бешеный бык через торрент бесплатно! Внесите свою лепту в развитие PiratBit!
    Комментировать посты могут только пользователи прошедшие не сложную регистрацию
    Показать сообщения:    

    Бешеный бык через торрент
    Скачать бесплатно Бешеный бык
    Бешеный бык скачать торрент
    Бешеный бык смотреть онлайн
    Cкачать фильм Бешеный бык бесплатно
    Бешеный бык скачать торрент в хорошем качестве
    Бешеный бык смотреть онлайн бесплатно в хорошем качестве


    Вы не можете начинать темы
    Вы не можете отвечать на сообщения
    Вы не можете редактировать свои сообщения
    Вы не можете удалять свои сообщения
    Вы не можете голосовать в опросах
    Вы не можете прикреплять файлы к сообщениям
    Вы можете скачивать файлы