Ссылка на приватное зеркало всего за 1$. Внимание количество ограничено!!!

OK

1+1

iTunes

мы

OK

1

WEB-DLRip

Джокер

Пифагор

Ведьмак / The Witcher сериал

iTunes

ПШазам

ОК

Оно 2

iTunes

30
pack

Вам бонус

ВАЖНО

!!Акция!!

Alien_RageХит недели

RePack

Resident Evil 21

ИГРА 18+

pack

RePack

jed

RePack

fifa19

RePack

Assassins Creed: Odyssey

RePack

NEED FOR SPEED™ PAYBACK

4 сезон

9 сезон

Бесстыжие 9 сезон

Все сериалы

все сериалы на PB.wtf

RePack

FAR CRY 5
  

Мустанг / Mustang (Дениз Гамзе Эргювен) [2015, драма, WEB-DLRip] MVO [iTunes] pb.wtf

Мустанг через торрент pb.wtf

Размер: 1.37 GB | Добавлен: 4 года назад | Торрент скачан:247 раз
Скачать  

11-01-2016 00:48 Мустанг Скачать торрент  

Мустанг / Mustang
Год выпуска » 2015
Страна » Турция, Франция, Катар, Германия
Жанр » Драма
Продолжительность » 01:37:08
Перевод » Профессиональное (многоголосное) [iTunes]
Субтитры » Нет

В ролях
» Гюнеш Шенсой, Дога Зейнеп Догуслу, Элит Ишчан, Тугба Сунгуроглу, Илаида Акдоган, Нихал Г. Колдаш, Айберк Пекджан, Бахар Керимоглу, Бурак Йийит, Эрол Афсин

Режиссёр
» Дениз Гамзе Эргювен
ОПИСАНИЕ:
» В деревне на севере Турции пятеро сестер-подростков возвращаются из школы, беззаботно резвясь с мальчишками. Консервативные воспитатели считают эти невинные игры непозволительными и всерьез берутся за воспитание девушек. Жизнь юных сестер круто меняется: дом становится тюрьмой, школу заменяют уроки домашнего хозяйства, начинаются приготовления к принудительным свадьбам. Но жизнелюбивые девушки не собираются мириться с традициями, ограничивающими их свободу…
• Качество » WEB-DLRip [Рип с WEB-DL 1080p]
• Формат » AVI
• Видео кодек » XviD
• Аудио кодек » AC3
• Видео » MPEG-4 Visual,1621Кбит/сек, 720x304,24,000 кадра/сек
• Аудио » Русский (AC-3 / 6 ch / 384 kbps /16 bit )


Общее
Полное имя : C:\Users\DRON & LeXuZ\Desktop\Mustang.2015.P.WEB-DLRip.1400MB.avi
Формат : AVI
Формат/Информация : Audio Video Interleave
Размер файла : 1,37 Гбайт
Продолжительность : 1 ч. 37 м.
Общий поток : 2014 Кбит/сек
Программа кодирования : VirtualDubMod 1.5.10.2 (build 2540/release)
Библиотека кодирования : VirtualDubMod build 2540/release

Видео
Идентификатор : 0
Формат : MPEG-4 Visual
Профиль формата : Advanced Simple@L5
Параметр BVOP формата : 2
Параметр QPel формата : Нет
Параметр GMC формата : Без точки перехода
Параметр матрицы формата : Default (MPEG)
Идентификатор кодека : XVID
Идентификатор кодека/Подсказка : XviD
Продолжительность : 1 ч. 37 м.
Битрейт : 1621 Кбит/сек
Ширина : 720 пикселей
Высота : 304 пикселя
Соотношение сторон : 2,35:1
Частота кадров : 24,000 кадра/сек
Цветовое пространство : YUV
Субдискретизация насыщенности : 4:2:0
Битовая глубина : 8 бит
Тип развёртки : Прогрессивная
Метод сжатия : С потерями
Бит/(Пиксели*Кадры) : 0.309
Размер потока : 1,10 Гбайт (80%)
Библиотека кодирования : XviD 1.2.1 (UTC 2008-12-04)

Аудио
Идентификатор : 1
Формат : AC-3
Формат/Информация : Audio Coding 3
Расширение режима : CM (complete main)
Параметр Endianness формата : Big
Идентификатор кодека : 2000
Продолжительность : 1 ч. 37 м.
Вид битрейта : Постоянный
Битрейт : 384 Кбит/сек
Каналы : 6 каналов
Расположение каналов : Front: L C R, Side: L R, LFE
Частота : 48,0 КГц
Битовая глубина : 16 бит
Метод сжатия : С потерями
Размер потока : 267 Мбайт (19%)
Выравнивание : Разделение по промежуткам
Продолжительность промежутка : 42 мс. (1,00 видеокадр)
Время предзагрузки промежутка : 500 мс.
скриншот   скриншот   скриншот  
pb.wtf



Скачать Мустанг через торрент http://pic1.kartinco.top/images/10/vetoz.jpg Скачать фильм Мустанг через торрент бесплантно в хорошем качестве ОПИСАНИЕ: » В деревне на севере Турции пятеро сестер-подростков возвращаются из школы, беззаботно резвясь с мальчишками. Консервативные ... 8.6 10 8
Торрент: Зарегистрирован [2016-01-11 00:48] · скачан: 247 раз
Статус: √ проверено
Размер: 1.37 GB
Как cкачать? Как скачать Мустанг через торрент | qTorrent

% Раздел Тема Автор DL S | L
T Фильмы (мультфильмы) cо спонсором показа (Новинки AVI/MKV) [ 3.79 GB ] История о мустанге и покорной женщине / The Mustanger and the Lady [2017 WEB-DL 720p] MVO ["Синема УС"] bober100 Скачать
1 | 0
T Фильмы (мультфильмы) cо спонсором показа (Новинки AVI/MKV) [ 1.36 GB ] История о мустанге и покорной женщине / The Mustanger and the Lady [2017 WEB-DLRip] MVO ["Синема УС"] bober100 Скачать
1 | 0
R.G. Resident & PiratVoice - Фильмы, Видео [ 1.46 GB ] Мустанг / Mustang [2015 WEB-DLRip-AVC многоголосый R.G.Resident schultz Скачать
1 | 0
Фильмы (WEB-DL 720p, 1080p) [ 3.27 GB ] Мустанг / Mustang [2015 WEB-DL 1080p] MVO $-DRON-$ Скачать
1 | 0


Последний раз редактировалось: $-DRON-$ (2016-01-11 00:53), всего редактировалось 1 раз

28-11-2019 20:33  

Отключить всю рекламу на сайте

11-01-2016 00:48 Мустанг Скачать торрент  

Релиз без рекламыpb.wtf



11-01-2016 10:17 Мустанг Скачать торрент  

Как фильм напишите кто глянул стоит смотреть.pb.wtf



11-01-2016 10:58 Мустанг Скачать торрент  

рейтинг обнадёживает.. будем качать..pb.wtf



    Дорогой пользователь! Огромная просьба, поблагодарите релизера, оцените раздачу и оставьте свои комментарий, если Вы скачали Мустанг через торрент бесплатно! Внесите свою лепту в развитие PiratBit!
    Комментировать посты могут только пользователи прошедшие не сложную регистрацию
    Показать сообщения:    

    Мустанг через торрент
    Скачать бесплатно Мустанг
    Мустанг скачать торрент
    Мустанг смотреть онлайн
    Cкачать фильм Мустанг бесплатно
    Мустанг скачать торрент в хорошем качестве
    Мустанг смотреть онлайн бесплатно в хорошем качестве


    Вы не можете начинать темы
    Вы не можете отвечать на сообщения
    Вы не можете редактировать свои сообщения
    Вы не можете удалять свои сообщения
    Вы не можете голосовать в опросах
    Вы не можете прикреплять файлы к сообщениям
    Вы можете скачивать файлы