Ссылка на приватное зеркало всего за 1$. Внимание количество ограничено!!!

OK

1+1

iTunes

мы

OK

1

WEB-DLRip

Джокер

Пифагор

Ведьмак / The Witcher сериал

iTunes

ПШазам

ОК

Оно 2

iTunes

30
pack

Вам бонус

ВАЖНО

!!Акция!!

Alien_RageХит недели

RePack

Resident Evil 21

ИГРА 18+

pack

RePack

jed

RePack

fifa19

RePack

Assassins Creed: Odyssey

RePack

NEED FOR SPEED™ PAYBACK

4 сезон

9 сезон

Бесстыжие 9 сезон

Все сериалы

все сериалы на PB.wtf

RePack

FAR CRY 5
  

Приключения Джо Грязнули 2 / Joe Dirt 2: Beautiful Loser (Фред Вульф) [2015, комедия, HDRip] MVO [iTunes] pb.wtf

Приключения Джо Грязнули 2 через торрент pb.wtf

Размер: 1.37 GB | Добавлен: 4 года назад | Торрент скачан:357 раз
Скачать  

11-01-2016 01:30 Приключения Джо Грязнули 2 Скачать торрент  

Приключения Джо Грязнули 2 / Joe Dirt 2: Beautiful Loser

Год выпуска » 2015
Страна » США
Жанр » Комедия
Продолжительность » 01:49:33
Перевод » Профессиональное (многоголосное) [iTunes]
Субтитры » Нет

В ролях
» Дэвид Спейд, Бриттани Дэниэл, Патрик Варбертон, Марк МакГрат, Деннис Миллер, Кристофер Уокен, Тоби Бронсон, Рон Флагг, Ронда Дентс, Трэйси Вейсерт

Режиссёр
» Фред Вульф
ОПИСАНИЕ:
» Когда счастливый семьянин Джо Грязнуля находит себя перенесенным в недавнее прошлое, он начинает эпическое путешествие, чтобы вернуться к своим близким в настоящее время.
• Качество » HDRip [Рип с BDRip 720p]
• Формат » AVI
• Видео кодек » XviD
• Аудио кодек » AC3
• Видео » MPEG-4 Visual,1393 Кбит/сек, 720x400,23,976 кадра/сек
• Аудио » Русский (AC-3 / 6 ch / 384 kbps /16 bit )

• Примечание: На американском Blu-Ray вышла нецензурированная версия, которая длиннее на ~ 2.5 мин чем прокатная в России. Поэтому около 2-х минут нецензурированых сцен остались без перевода.

Общее
Полное имя : E:/DJO.GrYznUla.II.2015.P.HDRip.14OOMb.avi
Формат : AVI
Формат/Информация : Audio Video Interleave
Размер файла : 1,37 Гбайт
Продолжительность : 1 ч. 49 м.
Общий поток : 1786 Кбит/сек
Программа кодирования : VirtualDubMod 1.5.10.2 (build 2540/release)
Библиотека кодирования : VirtualDubMod build 2540/release

Видео
Идентификатор : 0
Формат : MPEG-4 Visual
Профиль формата : Advanced Simple@L5
Параметр BVOP формата : 2
Параметр QPel формата : Нет
Параметр GMC формата : Без точки перехода
Параметр матрицы формата : Default (MPEG)
Идентификатор кодека : XVID
Идентификатор кодека/Подсказка : XviD
Продолжительность : 1 ч. 49 м.
Битрейт : 1393 Кбит/сек
Ширина : 720 пикселей
Высота : 400 пикселей
Соотношение сторон : 16:9
Частота кадров : 23,976 кадра/сек
Цветовое пространство : YUV
Субдискретизация насыщенности : 4:2:0
Битовая глубина : 8 бит
Тип развёртки : Прогрессивная
Метод сжатия : С потерями
Бит/(Пиксели*Кадры) : 0.202
Размер потока : 1,07 Гбайт (78%)
Библиотека кодирования : XviD 1.2.1 (UTC 2008-12-04)

Аудио
Идентификатор : 1
Формат : AC-3
Формат/Информация : Audio Coding 3
Расширение режима : CM (complete main)
Параметр Endianness формата : Big
Идентификатор кодека : 2000
Продолжительность : 1 ч. 49 м.
Вид битрейта : Постоянный
Битрейт : 384 Кбит/сек
Каналы : 6 каналов
Расположение каналов : Front: L C R, Side: L R, LFE
Частота : 48,0 КГц
Битовая глубина : 16 бит
Метод сжатия : С потерями
Размер потока : 301 Мбайт (21%)
Выравнивание : Разделение по промежуткам
Продолжительность промежутка : 42 мс. (1,00 видеокадр)
Время предзагрузки промежутка : 500 мс.
скриншот   скриншот   скриншот   скриншот   скриншот   скриншот   скриншот   скриншот   скриншот   скриншот  
pb.wtf



Скачать Приключения Джо Грязнули 2 через торрент http://pic1.kartinco.top/images/10/9w8oq.jpg Скачать фильм Приключения Джо Грязнули 2 через торрент бесплантно в хорошем качестве ОПИСАНИЕ: » Когда счастливый семьянин Джо Грязнуля находит себя перенесенным в недавнее прошлое, он начинает эпическое путешествие, чтобы ... 9.6 10 13
Торрент: Зарегистрирован [2016-01-11 01:30] · скачан: 357 раз
Статус: √ проверено
Размер: 1.37 GB
Как cкачать? Как скачать Приключения Джо Грязнули 2 через торрент | qTorrent

% Раздел Тема Автор DL S | L
Фильмы 2015 [DVDrip, WEB-DLRip, HDrip] [ 2.19 GB ] Джо Грязнули 2 / Joe Dirt 2: Beautiful Loser [2015 HDRip многоголосый закадровый ""] coc900 Скачать
1 | 0
T Фильмы [HD 720p, 1080p] (Хороший звук DUB, MVO) [ 5.76 GB ] Джо Грязнули 2 / Joe Dirt 2: Beautiful Loser [2015 BDRip 720p] MVO $-DRON-$ Скачать
1 | 0
Фильмы 2015 [DVDrip, WEB-DLRip, HDrip] [ 2.05 GB ] Джо Грязнули 2 / Joe Dirt 2: Beautiful Loser [2015 HDRip] MVO $-DRON-$ Скачать
1 | 0


Последний раз редактировалось: $-DRON-$ (2016-01-11 20:27), всего редактировалось 1 раз

28-11-2019 20:33  

Отключить всю рекламу на сайте

11-01-2016 01:36 Приключения Джо Грязнули 2 Скачать торрент  

Релиз без рекламыpb.wtf



11-01-2016 13:53 Приключения Джо Грязнули 2 Скачать торрент  

так я непонял здесь версия с полным или неполным переводом и будет ли версия где полный переводpb.wtf



11-01-2016 15:42 Приключения Джо Грязнули 2 Скачать торрент  

Смешная комедия?стоит или нет скачивать? pb.wtf



11-01-2016 16:06 Приключения Джо Грязнули 2 Скачать торрент  

А американская комедия может быть смешной?pb.wtf



12-01-2016 10:55 Приключения Джо Грязнули 2 Скачать торрент  

jgthfnjh писал(а):

А американская комедия может быть смешной?

Она может быть только пошлой...pb.wtf



22-01-2016 12:49 Приключения Джо Грязнули 2 Скачать торрент  

Ну да,конечно!Ведь русские комедии офигеть какие "умные"!pb.wtf



    Дорогой пользователь! Огромная просьба, поблагодарите релизера, оцените раздачу и оставьте свои комментарий, если Вы скачали Приключения Джо Грязнули 2 через торрент бесплатно! Внесите свою лепту в развитие PiratBit!
    Комментировать посты могут только пользователи прошедшие не сложную регистрацию
    Показать сообщения:    

    Приключения Джо Грязнули 2 через торрент
    Скачать бесплатно Приключения Джо Грязнули 2
    Приключения Джо Грязнули 2 скачать торрент
    Приключения Джо Грязнули 2 смотреть онлайн
    Cкачать фильм Приключения Джо Грязнули 2 бесплатно
    Приключения Джо Грязнули 2 скачать торрент в хорошем качестве
    Приключения Джо Грязнули 2 смотреть онлайн бесплатно в хорошем качестве


    Вы не можете начинать темы
    Вы не можете отвечать на сообщения
    Вы не можете редактировать свои сообщения
    Вы не можете удалять свои сообщения
    Вы не можете голосовать в опросах
    Вы не можете прикреплять файлы к сообщениям
    Вы можете скачивать файлы