новый адрес
Ссылка на приватное зеркало всего за 1$. Внимание количество ограничено!!!

iTunes

1+1

iTunes

мы

iTunes

1

iTunes

Чернобыль

iTunes

Ральф против интернета

Лицензия

ПШазам

Лицензия

Оно 2

Лицензия

30
pack

Вам бонус

ВАЖНО

!!Акция!!

Alien_RageХит недели

RePack

Resident Evil 21

ИГРА 18+

pack

RePack

jed

!!Акция!!

Alien_Rage

RePack

fifa19

RePack

Assassins Creed: Odyssey

RePack

NEED FOR SPEED™ PAYBACK

3 сезон

9 сезон

Бесстыжие 9 сезон

Все сериалы

все сериалы на PB.wtf

RePack

FAR CRY 5
Ребята, катастрофически не хватает 1900р. для оплаты серверов за Октябрь (всвязи с блокировками трафик упал в 3 раза), 1-2р., выручайте.
  

Учитель танцев (Татьяна Лукашевич) [1952, СССР, мелодрама, DVDRip от AVP Studio] pb.wtf

Учитель танцев через торрент pb.wtf

Размер: 1.09 GB | Добавлен: 3 года 10 мес. назад | Торрент скачан:25 раз
Скачать  

11-01-2016 09:35 Учитель танцев Скачать торрент  

Учитель танцев
Страна: СССР
Производство: Мосфильм

Жанр: мелодрама
Год выпуска: 1952
Продолжительность: 02:15:00

Перевод: Не требуется
Cубтитры: нет
Оригинальная аудиодорожка: русский

Режиссер: Татьяна Лукашевич

В ролях:
Владимир Зельдин, Марк Перцовский, Георгий Сорокин, Борис Лесовой, Любовь Добржанская, Владимир Благообразов, Михаил Майоров, Яков Халецкий, С. Знаменский, Генриетта Островская, Фёдор Савостьянов, Татьяна Алексеева...
Полный список актёров

Описание:
Фильм-спектакль Центрального театра Советской Армии по пьесе Лопе де Вега.
Юный Альдемаро (Владимир Зельдин) из обедневшего дворянского рода любит дочь богатого и знатного сеньора. Под вымышленным именем, назвавшись учителем танцев, герой попадает в дом отца возлюбленной.

Источник: DVD9 R5
Качество видео: DVDRip
Формат видео: AVI

Видео: 576x432 (4:3), 25 fps, XviD ~ 1017 kbps avg, 0.164 bit/pixel
Аудио: 48 kHz, MP3 2.0, 128 kbps

Раздача от:
Общее
Полное имя : Uchitel.tancev.1952.DVDRip-1.09_[New-team]_by_AVP_Studio.avi
Формат : AVI
Формат/Информация : Audio Video Interleave
Размер файла : 1,09 Гбайт
Продолжительность : 2 ч. 14 м.
Общий поток : 1155 Кбит/сек
Программа кодирования : VirtualDubMod 1.5.10.3 | www.virtualdub-fr.org || (build 2550/release)
Библиотека кодирования : VirtualDubMod build 2550/release

Видео
Идентификатор : 0
Формат : MPEG-4 Visual
Профиль формата : Advanced Simple@L5
Параметр BVOP формата : 1
Параметр QPel формата : Нет
Параметр GMC формата : Без точки перехода
Параметр матрицы формата : Выборочная
Идентификатор кодека : XVID
Идентификатор кодека/Подсказка : XviD
Продолжительность : 2 ч. 14 м.
Битрейт : 1017 Кбит/сек
Ширина : 576 пикселей
Высота : 432 пикселя
Соотношение сторон : 4:3
Частота кадров : 25,000 кадров/сек
Цветовое пространство : YUV
Субдискретизация насыщенности : 4:2:0
Битовая глубина : 8 бит
Тип развёртки : Прогрессивная
Метод сжатия : С потерями
Бит/(Пиксели*Кадры) : 0.164
Размер потока : 982 Мбайт (88%)
Библиотека кодирования : XviD 1.2.1 (UTC 2008-12-04)

Аудио
Идентификатор : 1
Формат : MPEG Audio
Версия формата : Version 1
Профиль формата : Layer 3
Идентификатор кодека : 55
Идентификатор кодека/Подсказка : MP3
Продолжительность : 2 ч. 14 м.
Вид битрейта : Постоянный
Битрейт : 128 Кбит/сек
Каналы : 2 канала
Частота : 48,0 КГц
Метод сжатия : С потерями
Размер потока : 124 Мбайт (11%)
Выравнивание : Соединение по промежуткам
Продолжительность промежутка : 40 мс. (1,00 видеокадр)
Время предзагрузки промежутка : 504 мс.
Библиотека кодирования : LAME3.99r
Настройки программы : -m s -V 4 -q 2 -lowpass 17 -b 128
pb.wtf



Скачать Учитель танцев через торрент http://s014.radikal.ru/i328/1601/7b/4c269c07f509.png Скачать фильм Учитель танцев через торрент бесплантно в хорошем качестве Описание:Фильм-спектакль Центрального театра Советской Армии по пьесе Лопе де Вега.Юный Альдемаро (Владимир Зельдин) из обедневшего ... 5 10 1
Info! Золотая раздача, скачанное не засчитывается.
Торрент: Зарегистрирован [2016-01-11 09:35] · скачан: 25 раз
Статус: √ проверено
Размер: 1.09 GB
Как cкачать? Как скачать Учитель танцев через торрент | qTorrent

% Раздел Тема Автор DL S | L
Кино СССР [ 2.18 GB ] Учитель танцев [1952 СССР DVDRip-AVC от AVP Studio] AVP Studio Скачать
1 | 0
Кино СССР [ 2.18 GB ] Учитель танцев [1952 СССР DVDRip от AVP Studio] AVP Studio Скачать
1 | 0
    Дорогой пользователь! Огромная просьба, поблагодарите релизера, оцените раздачу и оставьте свои комментарий, если Вы скачали Учитель танцев через торрент бесплатно! Внесите свою лепту в развитие PiratBit!
    Комментировать посты могут только пользователи прошедшие не сложную регистрацию
    Показать сообщения:    

    Учитель танцев через торрент
    Скачать бесплатно Учитель танцев
    Учитель танцев скачать торрент
    Учитель танцев смотреть онлайн
    Cкачать фильм Учитель танцев бесплатно
    Учитель танцев скачать торрент в хорошем качестве
    Учитель танцев смотреть онлайн бесплатно в хорошем качестве


    Вы не можете начинать темы
    Вы не можете отвечать на сообщения
    Вы не можете редактировать свои сообщения
    Вы не можете удалять свои сообщения
    Вы не можете голосовать в опросах
    Вы не можете прикреплять файлы к сообщениям
    Вы можете скачивать файлы