новый адрес
Мега распродажа FORZA HORIZON 4 ULTIMATE+ВСЕ DLC+ОНЛАЙН всего за 499р. 349 руб. (супер цена). Внимание количество ограничено!!!

iTunes

1+1

iTunes

мы

iTunes

1

iTunes

Чернобыль

iTunes

Ральф против интернета

Лицензия

ПШазам

Лицензия

Оно 2

Лицензия

30
pack

ВАЖНО

!!Акция!!

Alien_RageХит недели

RePack

Resident Evil 21

ИГРА 18+

pack

RePack

jed

!!Акция!!

Alien_Rage

RePack

fifa19

RePack

Assassins Creed: Odyssey

RePack

NEED FOR SPEED™ PAYBACK

3 сезон

9 сезон

Бесстыжие 9 сезон

Все сериалы

все сериалы на PB.wtf

RePack

FAR CRY 5
Ребята, катастрофически не хватает 1900р. для оплаты серверов за Октябрь (всвязи с блокировками трафик упал в 3 раза), 1-2р., выручайте.
  

Сын миллиардера / Billionaire Boy (Мэтт Липси) [2016, Комедия, семейный, HDTVRip] VO pb.wtf

Сын миллиардера через торрент pb.wtf

Размер: 994 MB | Добавлен: 3 года 10 мес. назад | Торрент скачан:341 раз
Скачать  

11-01-2016 16:33 Сын миллиардера Скачать торрент  


Сын миллиардера / Billionaire Boy


ИНФОРМАЦИЯ:
Год выпуска:2016
Страна: Великобритания
Жанр: Комедия, семейный
Продолжительность: 00:59:33
Перевод: Любительский (одноголосый)(Lord32x)
Режиссер: Мэтт Липси

В Ролях:


Tupele Dorgu (Julie), Джон Томсон (Len Spud), Шон МакКензи (Foreman), Тодд Бойс (Global Newsreader), Тина Чианг (Global Newsreader), Magdalene Mills (Global Newsreader), Уорвик Дэвис (играет самого себя), Кэтрин Тейт (Sapphire Diamond), Джеймс Флит (Mr. Darrow), Ребекка Фронт (Miss Sharp), Mollie Nash (Reporter), Энтони О’Доннелл (Mr. Brace)

Описание:
Джо — сын миллиардера, сделавшего состояние на туалетной бумаге. Он живет в замке и ездит в школу на Роллс-Ройсе. Короче, у него есть все...кроме друзей. И пока папа заводит интрижку с фотомоделью (ведь настоящие миллиардеры встречаются только с моделями), Джо пытается найти общий язык со сверстниками

  • Мировая премьера:1 января 2016

    ТЕХ.ДАННЫЕ:
    Качество: HDTVRip
    Формат: AVI
    Видео: XviD, 720x400 (16:9), 2040 kbps, 25 fps, 0,283 bpp
    Аудио: MP3 / 2.0 / 48 kHz / 192 kbps /


    General
    Complete name : D:\Торенты\Billionaire.Boy.2016.HDTVRip.Lord32x.Studio.avi
    Format : AVI
    Format/Info : Audio Video Interleave
    File size : 994 MiB
    Duration : 59mn 33s
    Overall bit rate : 2 334 Kbps
    Writing application : VirtualDubMod 1.5.10.3 | www.virtualdub-fr.org || (build 2550/release)
    Writing library : VirtualDubMod build 2550/release

    Video
    ID : 0
    Format : MPEG-4 Visual
    Format profile : Advanced Simple@L5
    Format settings, BVOP : 1
    Format settings, QPel : No
    Format settings, GMC : No warppoints
    Format settings, Matrix : Default (H.263)
    Codec ID : XVID
    Codec ID/Hint : XviD
    Duration : 59mn 33s
    Bit rate : 2 040 Kbps
    Width : 720 pixels
    Height : 400 pixels
    Display aspect ratio : 16:9
    Frame rate : 25.000 fps
    Color space : YUV
    Chroma subsampling : 4:2:0
    Bit depth : 8 bits
    Scan type : Progressive
    Compression mode : Lossy
    Bits/(Pixel*Frame) : 0.283
    Stream size : 869 MiB (87%)
    Writing library : XviD 1.2.1 (UTC 2008-12-04)

    Audio
    ID : 1
    Format : MPEG Audio
    Format version : Version 1
    Format profile : Layer 3
    Mode : Joint stereo
    Mode extension : MS Stereo
    Codec ID : 55
    Codec ID/Hint : MP3
    Duration : 59mn 33s
    Bit rate mode : Constant
    Bit rate : 192 Kbps
    Channel(s) : 2 channels
    Sampling rate : 48.0 KHz
    Compression mode : Lossy
    Stream size : 81.8 MiB (8%)
    Alignment : Aligned on interleaves
    Скриншоты:

    © Оформление by .::Ворон::.
    pb.wtf
    !schultz писал(а):

    Присутствует реклама стороннего ресурса



  • Скачать Сын миллиардера через торрент http://pic.kartinco.top/images/6/ordi9.jpg Скачать фильм Сын миллиардера через торрент бесплантно в хорошем качестве Описание: Джо — сын миллиардера, сделавшего состояние на туалетной бумаге. Он живет в замке и ездит в школу на Роллс-Ройсе. Короче, у него ... 9.9 10 9
    Info! Золотая раздача, скачанное не засчитывается.
    Торрент: Зарегистрирован [2016-01-11 16:35] · скачан: 341 раз
    Статус: T временная
    Размер: 994 MB
    Как cкачать? Как скачать Сын миллиардера через торрент | qTorrent


    >> Регистрируемся здесь <<






    Отзывы и комментарии о схеме читаем и пишем здесь: ---> Отзывы и комментарии о схеме

    Новые благодарочки в телеграм довольных пользователей:
    скриншот   скриншот   скриншот   скриншот   скриншот

    11-01-2016 16:36 Сын миллиардера Скачать торрент  

    Первый фильм 2016 года pb.wtf



    12-01-2016 22:10 Сын миллиардера Скачать торрент  

    , старт дан.. хоть скорее всего фильм не о чем, ну на безрыбье и скумбрия под пивасик pb.wtf



      Дорогой пользователь! Огромная просьба, поблагодарите релизера, оцените раздачу и оставьте свои комментарий, если Вы скачали Сын миллиардера через торрент бесплатно! Внесите свою лепту в развитие PiratBit!
      Комментировать посты могут только пользователи прошедшие не сложную регистрацию
      Показать сообщения:    

      Сын миллиардера через торрент
      Скачать бесплатно Сын миллиардера
      Сын миллиардера скачать торрент
      Сын миллиардера смотреть онлайн
      Cкачать фильм Сын миллиардера бесплатно
      Сын миллиардера скачать торрент в хорошем качестве
      Сын миллиардера смотреть онлайн бесплатно в хорошем качестве


      Вы не можете начинать темы
      Вы не можете отвечать на сообщения
      Вы не можете редактировать свои сообщения
      Вы не можете удалять свои сообщения
      Вы не можете голосовать в опросах
      Вы не можете прикреплять файлы к сообщениям
      Вы можете скачивать файлы