Ссылка на приватное зеркало нашего сайта всего за 1$. Внимание количество ограничено!!!

2 сезон

iTunes

1 сезон

1

iTunes

iTunes

iTunes

1 сезон

RePack

30

ИГРА 18+

pack

ВАЖНО

!!Акция!!

Alien_RageХит недели

RePack

MK11
pack

Забери бонус

RePack

jed

!!Акция!!

Alien_Rage

RePack

fifa19

RePack

Assassins Creed: Odyssey

RePack

NEED FOR SPEED™ PAYBACK

4 сезон

9 сезон

Бесстыжие 9 сезон

Все сериалы

все сериалы на PB.wtf

RePack

FAR CRY 5
  

На троих (1 сезон: 1-24 серии из 24) (Евгения Евтушенко, Александр Тименко) [2015 г., Комедия, DVB] Русский pb.wtf

На троих через торрент pb.wtf

Размер: 19.83 GB | Добавлен: 4 года 9 мес. назад | Торрент скачан:51 раз
Скачать  

11-01-2016 18:05 На троих Скачать торрент  

На троих (1 сезон)
Год выпуска: 2015
Страна: Украина
Жанр: Комедия
Продолжительность: 24 x ~ 00:24:00
Перевод: Русский
Субтитры: Нет

Режиссер: Евгения Евтушенко, Александр Тименко

В ролях: Егор Крутоголов, Марина Поплавская. Александр Бережок, Виктория Булитко, Евгений Гашенко, Яна Глущенко, Евгений Сморигин, Олег Иваница

Описание: Герои нового сериала от Дизель Студио очень узнаваемы - это ваши друзья, соседи, врач из поликлиники, туристы, гаишники и милиционеры. Офисному планктону тоже достанется порция юмора. это очень смешнаые история из жизни. Авторы комедийного сериала уверяют что все будет предельно реалистично, ведь над проектом "На троих" работает хорошая команда. Так что будьте уверены телезрители у экранов обязательно от души повеселятся.....

Качество: DVB
Формат: MPEG
Видео кодек: MPEG2
Аудио кодек: MP2
Видео: MPEG-2, (1024x576),4 562 Kbps, 25.000 кадра/сек
Аудио#1: MP2, 2 ch,192 kbps (Rus) 48.0 KHz Русский
скриншот   скриншот   скриншот  

Тип потока: Видео
Длительность: 00:23:19
Кодек: MPEG Video
Кодек/профиль: Main@Main
Кодек/ID: 2
Кодек/версия: Version 2
Размеры изображения: 1024 x 576 (16:9)
Частота кадров: 25.000 fps
Размер потока: 757 MiB (91%)
Битрейт: 4 562 Kbps
Битрейт/тип: VBR
Метод сжатия: Lossy
Стандарт: PAL
Цветовое пространство: YUV
Тип развёртки: Interlaced
Колориметрия: 4:2:0
Глубина: 8 bits
:
Тип потока: Звук #1
Язык: Русский
Длительность: 00:23:19.440
Кодек: MPEG Audio
Кодек/профиль: Layer 2
Кодек/ID: 3
Частота дискретизации: 48.0 KHz
Каналов: 2 channels
Битрейт: 192 Kbps
Битрейт/тип: Constant
Размер потока: 32.0 MiB (4%)
Метод сжатия: Lossy

pb.wtf



Скачать На троих через торрент http://pic1.kartinco.top/images/10/lrb9n.jpg Скачать фильм На троих через торрент бесплантно в хорошем качестве Описание: Герои нового сериала от Дизель Студио очень узнаваемы - это ваши друзья, соседи, врач из поликлиники, туристы, гаишники и ... 8.2 10 5
Торрент: Зарегистрирован [2016-01-11 18:05] · скачан: 51 раз
Статус: √ проверено
Размер: 19.83 GB
Как cкачать? Как скачать На троих через торрент | qTorrent

% Раздел Тема Автор DL S | L
Наши сериалы [ 8.21 GB ] На троих / 1 сезон / серии 1-24 из 24 [2015 SATRip] Русский Бумер Скачать
1 | 0

28-11-2019 20:33  

Отключить всю рекламу на сайте

11-01-2016 19:41 На троих Скачать торрент  

5000 тысяч очков золотоpb.wtf



    Дорогой пользователь! Огромная просьба, поблагодарите релизера, оцените раздачу и оставьте свои комментарий, если Вы скачали На троих через торрент бесплатно! Внесите свою лепту в развитие PiratBit!
    Комментировать посты могут только пользователи прошедшие не сложную регистрацию
    Показать сообщения:    

    На троих через торрент
    Скачать бесплатно На троих
    На троих скачать торрент
    На троих смотреть онлайн
    Cкачать фильм На троих бесплатно
    На троих скачать торрент в хорошем качестве
    На троих смотреть онлайн бесплатно в хорошем качестве


    Вы не можете начинать темы
    Вы не можете отвечать на сообщения
    Вы не можете редактировать свои сообщения
    Вы не можете удалять свои сообщения
    Вы не можете голосовать в опросах
    Вы не можете прикреплять файлы к сообщениям
    Вы можете скачивать файлы