Ссылка на приватное зеркало всего за 1$. Внимание количество ограничено!!!

iTunes

iTunes

iTunes

1

iTunes

iTunes

iTunes

iTunes

iTunes

30
pack

$ от Little Big

ВАЖНО

!!Акция!!

Alien_RageХит недели

RePack

Resident Evil 21

ИГРА 18+

pack

RePack

jed

!!Акция!!

Alien_Rage

RePack

fifa19

RePack

Assassins Creed: Odyssey

RePack

NEED FOR SPEED™ PAYBACK

4 сезон

9 сезон

Бесстыжие 9 сезон

Все сериалы

все сериалы на PB.wtf

RePack

FAR CRY 5
  

Дьявол / Diablo (Лоуренс Рёк) [2015, боевик, триллер, приключения, вестерн WEB-DL 1080p] DVO (без рекламы) pb.wtf

Дьявол через торрент pb.wtf

Размер: 2.91 GB | Добавлен: 4 года 5 мес. назад | Торрент скачан:159 раз
Скачать  

11-01-2016 19:19 Дьявол Скачать торрент  

Информация о фильме

Название: Дьявол

Оригинальное название: Diablo

Год выхода: 2015

Выпущено: США, Канада / Diablo Movie, Space Rock Studios

Продолжительность: 01:23:11

Озвучивание: Любительское (двухголосое) [Parovoz Production]

Примечание: Релиз без рекламы.

Жанр: боевик, триллер, приключения, вестерн

Субтитры: English (forced)

Режиссер: Лоуренс Рёк

В ролях: Скотт Иствуд, Уолтон Гоггинс, Камилла Белль, Samuel Marty, Дэнни Гловер, Адам Бич, Roberto Franco, Диего Диабло Дель Мар, Неста Купер, Уильям Белло

Описание: Бывший солдат гражданской войны с посттравматическим синдромом пытается спасти свою жену, которую похитили. Он идет по следу похитителей... Травма дает о себе знать и он переживает все ужасы дьявольской войны, которые вернулись, чтобы преследовать его...



Файл

Качество: WEB-DL 1080p
Формат: MKV
Видео: MPEG-4 AVC, 4338 kb/s, 1912x796 , 23.976 fps
Аудио: Russian: AC3, 192 kb/s (2 ch) , 48.0 KHz
Аудио: English: AC3, 384 kb/s (6 ch) , 48.0 KHz
Format : Matroska

Format version : Version 2

File size : 2.91 GiB

Duration : 1h 23mn

Overall bit rate : 5 014 Kbps

Encoded date : UTC 2016-01-10 12:38:04

Writing application : mkvmerge v7.8.0 ('River Man') 32bit built on Apr 3 2015 12:11:22

Writing library : libebml v1.3.1 + libmatroska v1.4.2

Video

ID : 1

Format : AVC

Format/Info : Advanced Video Codec

Format profile : High@L4

Format settings, CABAC : Yes

Format settings, ReFrames : 5 frames

Codec ID : V_MPEG4/ISO/AVC

Duration : 1h 23mn

Bit rate : 4 338 Kbps

Width : 1 912 pixels

Height : 796 pixels

Display aspect ratio : 2.40:1

Frame rate mode : Constant

Frame rate : 23.976 fps

Color space : YUV

Chroma subsampling : 4:2:0

Bit depth : 8 bits

Scan type : Progressive

Bits/(Pixel*Frame) : 0.119

Stream size : 2.52 GiB (87%)

Language : English

Default : Yes

Forced : No

Color range : Limited

Color primaries : BT.709

Transfer characteristics : BT.709

Matrix coefficients : BT.709

Audio #1

ID : 2

Format : AC-3

Format/Info : Audio Coding 3

Mode extension : CM (complete main)

Format settings, Endianness : Big

Codec ID : A_AC3

Duration : 1h 23mn

Bit rate mode : Constant

Bit rate : 192 Kbps

Channel(s) : 2 channels

Channel positions : Front: L R

Sampling rate : 48.0 KHz

Bit depth : 16 bits

Compression mode : Lossy

Stream size : 114 MiB (4%)

Language : Russian

Default : Yes

Forced : No

Audio #2

ID : 3

Format : AC-3

Format/Info : Audio Coding 3

Mode extension : CM (complete main)

Format settings, Endianness : Big

Codec ID : A_AC3

Duration : 1h 23mn

Bit rate mode : Constant

Bit rate : 384 Kbps

Channel(s) : 6 channels

Channel positions : Front: L C R, Side: L R, LFE

Sampling rate : 48.0 KHz

Bit depth : 16 bits

Compression mode : Lossy

Stream size : 228 MiB (8%)

Language : English

Default : No

Forced : No

Text

ID : 4

Format : UTF-8

Codec ID : S_TEXT/UTF8

Codec ID/Info : UTF-8 Plain Text

Title : English-FORCED

Language : English

Default : No

Forced : No

Menu

00:00:00.000 : en:Chapter 1

00:06:42.000 : en:Chapter 2

00:14:20.000 : en:Chapter 3

00:21:40.000 : en:Chapter 4

00:29:00.000 : en:Chapter 5

00:36:09.000 : en:Chapter 6

00:41:55.000 : en:Chapter 7

00:51:05.000 : en:Chapter 8

00:57:53.000 : en:Chapter 9

01:03:19.000 : en:Chapter 10

01:10:00.000 : en:Chapter 11

01:17:27.000 : en:Chapter 12
pb.wtf



Скачать Дьявол через торрент http://i67.fastpic.ru/big/2016/0110/5b/ffe070945da873af1c96da778c16705b.jpg Скачать фильм Дьявол через торрент бесплантно в хорошем качестве Описание: Бывший солдат гражданской войны с посттравматическим синдромом пытается спасти свою жену, которую похитили. Он идет по следу ... 10 10 7
Торрент: Зарегистрирован [2016-01-11 19:19] · скачан: 159 раз
Статус: T временная
Размер: 2.91 GB
Как cкачать? Как скачать Дьявол через торрент | qTorrent

% Раздел Тема Автор DL S | L
Фильмы 2006-2008 [ 1.37 GB ] Болотный дьявол / Swamp Devil [2008 ] aspace Скачать
1 | 0
Аниме [HD 720p, 1080p] [ 4.36 GB ] И дьявол может плакать / Devil May Cry[12 эпизодов] [2007 мультфильм аниме ... BDRip] DragonHard Скачать
1 | 0
Фильмы 2006-2008 [ 2.18 GB ] Адвокат дьявола / The Devil's Advocate [UNRATED] [1997 HDRip-AVC] DUB [R5] от R.G. PiratFilms Phoenix Скачать
2 | 0
Фильмы 2006-2008 [ 1.46 GB ] Дьявол носит «Prada» / Devil Wears Prada The [2006 BDRip] paul08 Скачать
2 | 0
Фильмы [HD 720p, 1080p] (Хороший звук DUB, MVO) [ 23.38 GB ] Адвокат дьявола / The Devil's Advocate [1997 BDRip 1080p] DUB + AVO + MVO + DVO + Original Sub AlexKa Скачать
1 | 0
Порно фильмы с сюжетом [ 686 MB ] Дьявольский Блэк джек / Devil's Blackjack [1999 Feature All Sex DVDRip Пиратка] Edduke Скачать
1 | 0
Порно фильмы с сюжетом [ 1.36 GB ] Дьявол в мисс Джонс: Воскрешение / The Devil In Miss Jones: The Resurrection [2007 Feature Movies Couples Group Sex Porn Stars DVDRip Оригинал] sheker187 Скачать
1 | 0

28-11-2019 20:33  

Отключить всю рекламу на сайте

11-01-2016 20:30 Дьявол Скачать торрент  

где семпл??pb.wtf



11-01-2016 20:52 Дьявол Скачать торрент  

BeRSeRkeR_37rus™, http://multi-up.com/1083501 с ави файла, для оценки звука.pb.wtf



15-01-2016 19:55 Дьявол Скачать торрент  

мдаа, фильм бред полнейший, давно г такого не смотрел. автору спасибо за труды.pb.wtf



    Дорогой пользователь! Огромная просьба, поблагодарите релизера, оцените раздачу и оставьте свои комментарий, если Вы скачали Дьявол через торрент бесплатно! Внесите свою лепту в развитие PiratBit!
    Комментировать посты могут только пользователи прошедшие не сложную регистрацию
    Показать сообщения:    

    Дьявол через торрент
    Скачать бесплатно Дьявол
    Дьявол скачать торрент
    Дьявол смотреть онлайн
    Cкачать фильм Дьявол бесплатно
    Дьявол скачать торрент в хорошем качестве
    Дьявол смотреть онлайн бесплатно в хорошем качестве


    Вы не можете начинать темы
    Вы не можете отвечать на сообщения
    Вы не можете редактировать свои сообщения
    Вы не можете удалять свои сообщения
    Вы не можете голосовать в опросах
    Вы не можете прикреплять файлы к сообщениям
    Вы можете скачивать файлы