Ссылка на приватное зеркало всего за 1$. Внимание количество ограничено!!!

iTunes

iTunes

iTunes

1

iTunes

iTunes

iTunes

iTunes

iTunes

30
pack

$ от Little Big

ВАЖНО

!!Акция!!

Alien_RageХит недели

RePack

Resident Evil 21

ИГРА 18+

pack

RePack

jed

!!Акция!!

Alien_Rage

RePack

fifa19

RePack

Assassins Creed: Odyssey

RePack

NEED FOR SPEED™ PAYBACK

4 сезон

9 сезон

Бесстыжие 9 сезон

Все сериалы

все сериалы на PB.wtf

RePack

FAR CRY 5
  

Последний охотник на ведьм / The Last Witch Hunter (Брек Эйснер) [2015 г., фэнтези, боевик, приключения, WEB-DL 720p, Дубляж Лицензия / iTunes] pb.wtf

Последний охотник на ведьм через торрент pb.wtf

Размер: 3.26 GB | Добавлен: 4 года 5 мес. назад | Торрент скачан:1080 раз
Скачать  

11-01-2016 20:33 Последний охотник на ведьм Скачать торрент  

Последний охотник на ведьм / The Last Witch Hunter
Год выпуска: 2015
Страна: США, Китай, Канада
Жанр: фэнтези, боевик, приключения
Продолжительность: 01:46:26
Перевод: дубляж Лицензия / iTunes

Режиссер: Брек Эйснер
Продюссер: Марк Кантон, Вин Дизель, Берни Голдманн
Сценарий: Кори Гудман, Мэтт Сазама, Берк Шарплесс

Бюджет: $90 000 000
Премьера в мире: 13 октября 2015

IMDB 6.10 (14 313)


В ролях: Вин Дизель, Роуз Лесли, Элайджа Вуд, Оулавюр Дарри Оулафссон, Рина Оуэн, Юли Энгельбрехт, Майкл Кейн, Джозеф Гилган, Исаак Де Банколе, Майкл Халсли, Сергей Чонишвили, Михаил Тихонов, Сергей Чихачев, Елена Шульман, Борис Быстров

Описание: Современный мир скрывает множество секретов, но самым удивительным из них является то, что ведьмы до сих пор живут среди нас. Это злобные сверхъестественные существа, чья цель — наслать на мир смертоносную чуму. Армии охотников на ведьм сражались с ними на протяжении многих веков.В наши дни остался всего лишь один охотник на ведьм, Колдер, которому однажды удалось убить всемогущую королеву ведьм. Но Колдер еще не знает, что королева воскресла и жаждет отомстить своему убийце...

Качество: WEB-DL 720p
Формат: MKV
Видео кодек: x264
Видео: AVC, 1280x720 (16:9), 24.000 fps, 3 915 Kbps (0.177 bit/pixel)
Аудио#1: AC-3, 48.0 KHz, 6 ch, 384 Kbps, CBR (Russian)
The.Last.Witch.Hunter.2015.D.WEB-DL.720p.mkv

Format : Matroska
Format version : Version 4 / Version 2
File size : 3.26 GiB
Duration : 1h 46mn
Overall bit rate : 4 387 Kbps
Encoded date : UTC 2016-01-11 19:31:22
Writing application : mkvmerge v8.3.0 ('Over the Horizon')
64bit
Writing library : libebml v1.3.1 + libmatroska v1.4.2
DURATION : 01:46:26.848000000
NUMBER_OF_FRAMES : 199589
NUMBER_OF_BYTES : 306568704
_STATISTICS_WRITING_APP : mkvmerge v8.3.0 ('Over the Horizon') 64bit
_STATISTICS_WRITING_DATE_UT : 2016-01-11 19:31:22
_STATISTICS_TAGS : BPS DURATION NUMBER_OF_FRAMES NUMBER_OF_BYTES

Video
ID : 1
Format : AVC
Format/Info : Advanced Video Codec
Format profile : High@L3.1
Format settings, CABAC : No
Format settings, ReFrames : 2 frames
Codec ID : V_MPEG4/ISO/AVC
Duration : 1h 46mn
Bit rate : 3 915 Kbps
Width : 1 280 pixels
Height : 720 pixels
Display aspect ratio : 16:9
Frame rate mode : Constant
Frame rate : 24.000 fps
Color space : YUV
Chroma subsampling : 4:2:0
Bit depth : 8 bits
Scan type : Progressive
Bits/(Pixel*Frame) : 0.177
Stream size : 2.91 GiB (89%)
Language : English
Default : Yes
Forced : No
Color range : Limited
Color primaries : BT.709
Transfer characteristics : BT.709
Matrix coefficients : BT.709

Audio
ID : 2
Format : AC-3
Format/Info : Audio Coding 3
Mode extension : CM (complete main)
Format settings, Endianness : Big
Codec ID : A_AC3
Duration : 1h 46mn
Bit rate mode : Constant
Bit rate : 384 Kbps
Channel(s) : 6 channels
Channel positions : Front: L C R, Side: L R, LFE
Sampling rate : 48.0 KHz
Compression mode : Lossy
Stream size : 292 MiB (9%)
Language : Russian
Default : Yes
Forced : No

Menu
00:00:00.000 : en:Глава 1
00:05:21.000 : en:Глава 2
00:12:06.000 : en:Глава 3
00:18:03.000 : en:Глава 4
00:25:15.000 : en:Глава 5
00:30:58.000 : en:Глава 6
00:36:21.000 : en:Глава 7
00:42:57.000 : en:Глава 8
00:49:17.000 : en:Глава 9
00:54:59.000 : en:Глава 10
01:00:28.000 : en:Глава 11
01:05:48.000 : en:Глава 12
01:12:07.000 : en:Глава 13
01:17:47.000 : en:Глава 14
01:23:42.000 : en:Глава 15
01:29:42.000 : en:Глава 16
01:35:48.000 : en:Глава 17
скриншот  скриншот   скриншот  

Последний охотник на ведьм скачать торрент

pb.wtf



Скачать Последний охотник на ведьм через торрент http://pic.kartinco.top/images/11/y99cq.jpg Скачать фильм Последний охотник на ведьм через торрент бесплантно в хорошем качестве Описание: Современный мир скрывает множество секретов, но самым удивительным из них является то, что ведьмы до сих пор живут среди нас. Это ... 8.7 10 24
Info! Золотая раздача, скачанное не засчитывается.
Торрент: Зарегистрирован [2016-01-11 20:33] · скачан: 1 080 раз
Статус: √ проверено
Размер: 3.26 GB
Как cкачать? Как скачать Последний охотник на ведьм через торрент | qTorrent

% Раздел Тема Автор DL S | L
Ultra HD (UHD: 2K, 4K, 8K) — видео сверхвысокой чёткости [ 56.18 GB ] Последний охотник на ведьм / The Last Witch Hunter [2015 UHD BDRemux 2160p] DUB [] + AVO [Дольский] sheker187 Скачать
1 | 0
T Релизы по Парсеру [Игры, Сериалы и Фильмы и другое...] [ 38.38 GB ] Последний охотник на ведьм / The Last Witch Hunter [2015 UHDVCRip-HEVC 2160p] SEVMASH Скачать
1 | 0
Ultra HD (UHD: 2K, 4K, 8K) — видео сверхвысокой чёткости [ 49.25 GB ] Последний охотник на ведьм / The Last Witch Hunter [2015 UHD WEBRip 2160p] [USA Transfer] DUB [] bober100 Скачать
1 | 0
Фильмы с авторской озвучкой [ 1.46 GB ] Последний охотник на ведьм / The Last Witch Hunter [2015 BDRip] [AVO] killermax2013 Скачать
1 | 0
Фильмы (HD 720p, 1080p) (48-60 fps) [ 4.96 GB ] Последний охотник на ведьм / The Last Witch Hunter [2015 BDRip 720p 60fps от еnvy / NNNB] DUB еnvy Скачать
14 | 0
Фильмы (HD 720p, 1080p) (48-60 fps) [ 9.63 GB ] Последний охотник на ведьм / The Last Witch Hunter [2015 BDRip 720p by mimok 60fps mimok Скачать
2 | 0
Фильмы 2015 [DVDrip, WEB-DLRip, HDrip] [ 2.17 GB ] Последний охотник на ведьм / The Last Witch Hunter [2015 Китай BDRip-AVC от sokol_ok] DUB sokol_ok Скачать
2 | 0

28-11-2019 20:33  

Отключить всю рекламу на сайте

11-01-2016 21:24 Последний охотник на ведьм Скачать торрент  

Дааа!!!pb.wtf



    Дорогой пользователь! Огромная просьба, поблагодарите релизера, оцените раздачу и оставьте свои комментарий, если Вы скачали Последний охотник на ведьм через торрент бесплатно! Внесите свою лепту в развитие PiratBit!
    Комментировать посты могут только пользователи прошедшие не сложную регистрацию
    Показать сообщения:    

    Последний охотник на ведьм через торрент
    Скачать бесплатно Последний охотник на ведьм
    Последний охотник на ведьм скачать торрент
    Последний охотник на ведьм смотреть онлайн
    Cкачать фильм Последний охотник на ведьм бесплатно
    Последний охотник на ведьм скачать торрент в хорошем качестве
    Последний охотник на ведьм смотреть онлайн бесплатно в хорошем качестве


    Вы не можете начинать темы
    Вы не можете отвечать на сообщения
    Вы не можете редактировать свои сообщения
    Вы не можете удалять свои сообщения
    Вы не можете голосовать в опросах
    Вы не можете прикреплять файлы к сообщениям
    Вы можете скачивать файлы