Ссылка на приватное зеркало нашего сайта всего за 1$. Внимание количество ограничено!!!

2 сезон

iTunes

1 сезон

1

2 сезон

2 сезон

iTunes

1 сезон

RePack

30

Ultimate

ВАЖНО

ИГРА 18+

pack

RePack

MK11
pack

Забери бонус

RePack

jed

!!Акция!!

Alien_Rage

RePack

fifa19

RePack

Assassins Creed: Odyssey

RePack

NEED FOR SPEED™ PAYBACK

4 сезон

9 сезон

Бесстыжие 9 сезон

Все сериалы

все сериалы на PB.wtf

RePack

FAR CRY 5
  

Великая война не окончена. Фильм 11-й - "Границы,проведенные кровью" (Леонид Млечин) [2015 г., документальный, военный, история, DVB, Оригинальный] pb.wtf

Великая война не окончена. Фильм 11-й - "Границы,проведенные кровью" через торрент pb.wtf

Размер: 776 MB | Добавлен: 4 года 10 мес. назад | Торрент скачан:29 раз
Скачать  

12-01-2016 04:38 Великая война не окончена. Фильм 11-й - "Границы,проведенные кровью" Скачать торрент  

Великая война не окончена. Фильм 11-й - "Границы проведенные кровью"

Год выпуска: 2015
Страна: Россия
Жанр: документальный, военный, история
Продолжительность: 00:39:01
Перевод: Оригинальный

Автор и ведущий: Леонид Млечин
Руководитель проекта: Ольга Дерюгина

Описание: Державы-победительницы считали, что итогом мировой войны должно стать предоставление независимости народам, томившимся под чужим игом. Благодаря этому появились такие арабские страны, как Ирак, Сирия, Ливан... Иорданию создал Уинстон Черчилль, решив, что Британской империи не повредит небольшое буферное государство между евреями, сирийцами, иракцами и саудитами. Победители делили обширное наследство Оттоманской империи весьма поспешно.

Одним из итогов Первой мировой войны стало решение стран-победительниц относительно судьбы Палестины. 31 октября 1917 года на заседании британского кабинета министров обсуждалось будущее Палестины, принадлежавшей Оттоманской империи. Правительство постановило, что после войны Палестина станет британским протекторатом и еврейский народ получит право начать там новую историческую жизнь. Лорду Бальфуру поручили уведомить об этом решении сионистов-евреев, мечтавших вернуться в Палестину, откуда их когда-то изгнали.

Качество: DVB
Формат: TS
Видео кодек: AVC
Аудио кодек: MP2
Видео: AVC, 720x576 (16:9), 25.000 fps, 2 448 Kbps (0.236 bit/pixel)
Аудио: MP2, 48.0 KHz, 2 ch, 192 Kbps, CBR (Russian)

Код:

Формат                                   : MPEG-TS
Размер файла                             : 776 Мбайт
Продолжительность                        : 39 м.
Режим общего битрейта                    : Переменный
Общий поток                              : 2780 Кбит/сек

Видео
Идентификатор                            : 1091 (0x443)
Идентификатор меню                       : 1090 (0x442)
Формат                                   : AVC
Формат/Информация                        : Advanced Video Codec
Профиль формата                          : Main@L3
Параметр CABAC формата                   : Да
Параметр ReFrames формата                : 3 кадра
Параметр GOP формата                     : M=4, N=28
Идентификатор кодека                     : 27
Продолжительность                        : 39 м.
Битрейт                                  : 2448 Кбит/сек
Ширина                                   : 720 пикселей
Высота                                   : 576 пикселей
Соотношение сторон                       : 16:9
Частота кадров                           : 25,000 кадров/сек
Стандарт вещания                         : Component
Цветовое пространство                    : YUV
Субдискретизация насыщенности            : 4:2:0
Битовая глубина                          : 8 бит
Тип развёртки                            : Чересстрочная
Порядок развёртки                        : Верхнее поле первое
Бит/(Пиксели*Кадры)                      : 0.236
Размер потока                            : 683 Мбайт (88%)
Цветовой диапазон                        : Limited
Основные цвета                           : BT.601 PAL
Характеристики трансфера                 : BT.470 System B, BT.470 System G
Коэффициенты матрицы                     : BT.601

Аудио
Идентификатор                            : 1092 (0x444)
Идентификатор меню                       : 1090 (0x442)
Формат                                   : MPEG Audio
Версия формата                           : Version 1
Профиль формата                          : Layer 2
Идентификатор кодека                     : 3
Продолжительность                        : 39 м.
Вид битрейта                             : Постоянный
Битрейт                                  : 192 Кбит/сек
Каналы                                   : 2 канала
Частота                                  : 48,0 КГц
Метод сжатия                             : С потерями
Задержка видео                           : 15 мс.
Размер потока                            : 53,6 Мбайт (7%)
Язык                                     : Russian
Язык, дополнительно                      : Clean effects

pb.wtf



Скачать Великая война не окончена. Фильм 11-й - "Границы,проведенные кровью" через торрент http://i.imgur.com/ciMuu0S.png Скачать фильм Великая война не окончена. Фильм 11-й - "Границы,проведенные кровью" через торрент бесплантно в хорошем качестве Описание: Державы-победительницы считали, что итогом мировой войны должно стать предоставление независимости народам, томившимся под чужим ... 7.8 10 4
Торрент: Зарегистрирован [2016-01-12 04:38] · скачан: 29 раз
Статус: √ проверено
Размер: 776 MB
Как cкачать? Как скачать Великая война не окончена. Фильм 11-й - "Границы,проведенные кровью" через торрент | qTorrent

28-11-2019 20:33  

Отключить всю рекламу на сайте

    Дорогой пользователь! Огромная просьба, поблагодарите релизера, оцените раздачу и оставьте свои комментарий, если Вы скачали Великая война не окончена. Фильм 11-й - "Границы,проведенные кровью" через торрент бесплатно! Внесите свою лепту в развитие PiratBit!
    Комментировать посты могут только пользователи прошедшие не сложную регистрацию
    Показать сообщения:    

    Великая война не окончена. Фильм 11-й - "Границы,проведенные кровью" через торрент
    Скачать бесплатно Великая война не окончена. Фильм 11-й - "Границы,проведенные кровью"
    Великая война не окончена. Фильм 11-й - "Границы,проведенные кровью" скачать торрент
    Великая война не окончена. Фильм 11-й - "Границы,проведенные кровью" смотреть онлайн
    Cкачать фильм Великая война не окончена. Фильм 11-й - "Границы,проведенные кровью" бесплатно
    Великая война не окончена. Фильм 11-й - "Границы,проведенные кровью" скачать торрент в хорошем качестве
    Великая война не окончена. Фильм 11-й - "Границы,проведенные кровью" смотреть онлайн бесплатно в хорошем качестве


    Вы не можете начинать темы
    Вы не можете отвечать на сообщения
    Вы не можете редактировать свои сообщения
    Вы не можете удалять свои сообщения
    Вы не можете голосовать в опросах
    Вы не можете прикреплять файлы к сообщениям
    Вы можете скачивать файлы