Ссылка на приватное зеркало нашего сайта всего за 1$. Внимание количество ограничено!!!

2 сезон

iTunes

iTunes

1

iTunes

iTunes

iTunes

WEBRip

iTunes

30
pack

Вам бонус

ВАЖНО

!!Акция!!

Alien_RageХит недели

RePack

Horizon Zero Dawn

ИГРА 18+

pack

RePack

jed

!!Акция!!

Alien_Rage

RePack

fifa19

RePack

Assassins Creed: Odyssey

RePack

NEED FOR SPEED™ PAYBACK

4 сезон

9 сезон

Бесстыжие 9 сезон

Все сериалы

все сериалы на PB.wtf

RePack

FAR CRY 5
  

Ужастики / Goosebumps (Роб Леттерман) [2015, фэнтези, комедия, приключения, HDRip, Дубляж [Лицензия / iTunes] pb.wtf

Ужастики через торрент pb.wtf

Размер: 1.37 GB | Добавлен: 4 года 8 мес. назад | Торрент скачан:165 раз
Скачать  

12-01-2016 17:57 Ужастики Скачать торрент  

Ужастики / Goosebumps
Год выпуска: 2015
Страна: США, Австралия
Жанр: фэнтези, комедия, приключения
Продолжительность: 01:43:17
Перевод: Дубляж [Лицензия / iTunes]
Режиссер: Роб Леттерман
В ролях: Дилан Миннетт (Zach), Одейя Раш (Hannah), Эми Райан (Gale), Райан Ли (Champ), Джиллиан Белл (Lorraine), Джек Блэк (R. L. Stine / Slappy / Invisible Boy, озвучка), Кен Марино (Coach Carr), Холстон Сейдж (Taylor), Стивен Крюгер (Davidson), Кит А. Болден (Principal Garrison), Аманда Ланд (Officer Brooks), Тимоти С. Саймонс (Officer Stevens)

Описание: Кошмары бывают разные. Вечно голодные оборотни, плохо воспитанные зомби, агрессивные садовые гномы и даже гигантский неуравновешенный снежный человек...
Все эти фантастические монстры и монстрики многие годы магическим образом удерживались на страницах знаменитых бестселлеров «Ужастики», пока по воле случая их не выпустили на свободу в реальный мир.


Качество:HDRip
Формат: AVI
Видео кодек: XviD
Аудио кодек: AC3
Видео: 720x304 23.976fps 1501kbps
Аудио#1: 48000Hz 6ch 384kbps
скриншот   скриншот   скриншот   скриншот  

Общее
Полное имя : D:\Torrent\Ugastiki.2015.D.HDRip.14OOMB.avi
Формат : AVI
Формат/Информация : Audio Video Interleave
Размер файла : 1,37 Гбайт
Продолжительность : 1 ч. 43 м.
Общий поток : 1895 Кбит/сек
Программа кодирования : VirtualDubMod 1.5.10.2 (build 2540/release)
Библиотека кодирования : VirtualDubMod build 2540/release

Видео
Идентификатор : 0
Формат : MPEG-4 Visual
Профиль формата : Advanced Simple@L5
Параметр BVOP формата : 2
Параметр QPel формата : Нет
Параметр GMC формата : Без точки перехода
Параметр матрицы формата : Default (MPEG)
Идентификатор кодека : XVID
Идентификатор кодека/Подсказка : XviD
Продолжительность : 1 ч. 43 м.
Битрейт : 1502 Кбит/сек
Ширина : 720 пикселей
Высота : 304 пикселя
Соотношение сторон : 2,35:1
Частота кадров : 23,976 кадра/сек
Цветовое пространство : YUV
Субдискретизация насыщенности : 4:2:0
Битовая глубина : 8 бит
Тип развёртки : Прогрессивная
Метод сжатия : С потерями
Бит/(Пиксели*Кадры) : 0.286
Размер потока : 1,08 Гбайт (79%)
Библиотека кодирования : XviD 1.2.1 (UTC 2008-12-04)

Аудио
Идентификатор : 1
Формат : AC-3
Формат/Информация : Audio Coding 3
Расширение режима : CM (complete main)
Параметр Endianness формата : Big
Идентификатор кодека : 2000
Продолжительность : 1 ч. 43 м.
Вид битрейта : Постоянный
Битрейт : 384 Кбит/сек
Каналы : 6 каналов
Расположение каналов : Front: L C R, Side: L R, LFE
Частота : 48,0 КГц
Метод сжатия : С потерями
Размер потока : 284 Мбайт (20%)
Выравнивание : Разделение по промежуткам
Продолжительность промежутка : 42 мс. (1,00 видеокадр)
Время предзагрузки промежутка : 500 мс.


pb.wtf



Скачать Ужастики через торрент http://pic1.kartinco.top/images/10/ay5ua.jpg Скачать фильм Ужастики через торрент бесплантно в хорошем качестве Описание: Кошмары бывают разные. Вечно голодные оборотни, плохо воспитанные зомби, агрессивные садовые гномы и даже гигантский ... 8.9 10 9
Торрент: Зарегистрирован [2016-01-12 17:57] · скачан: 165 раз
Статус: √ проверено
Размер: 1.37 GB
Как cкачать? Как скачать Ужастики через торрент | qTorrent

% Раздел Тема Автор DL S | L
Ultra HD (UHD: 2K, 4K, 8K) — видео сверхвысокой чёткости [ 52.4 GB ] Ужастики 2: Беспокойный Хэллоуин / Goosebumps 2: Haunted Halloween [2018 UHD Blu-ray EUR 2160p] DUB [] bober100 Скачать
1 | 0
Фильмы 2018 [DVDrip, WEB-DLRip, HDrip] (DUB, MVO) [ 749 MB ] Ужастики 2: Беспокойный Хэллоуин / Goosebumps 2: Haunted Halloween [2018 HDRip] DUB [] bober100 Скачать
1 | 0
Фильмы 2018 [DVDrip, WEB-DLRip, HDrip] (DUB, MVO) [ 1.46 GB ] Ужастики 2: Беспокойный Хэллоуин / Goosebumps 2: Haunted Halloween [2018 BDRip] DUB [ BD EUR] bober100 Скачать
1 | 0
Ultra HD (UHD: 2K, 4K, 8K) — видео сверхвысокой чёткости [ 43.93 GB ] Ужастики 2: Беспокойный Хэллоуин / Goosebumps 2: Haunted Halloween [2018 UHD BDRemux 2160p] DUB [] bober100 Скачать
2 | 0
Фильмы (Blu-ray, BD-Remux, HDDVD) [ 17.36 GB ] Ужастики 2: Беспокойный Хэллоуин / Goosebumps 2: Haunted Halloween [2018 BD Remux 1080p] DUB [] bober100 Скачать
2 | 0
Фильмы 2018 [DVDrip, WEB-DLRip, HDrip] (DUB, MVO) [ 1.84 GB ] Ужастики 2: Беспокойный Хэллоуин / Goosebumps 2: Haunted Halloween [2018 BDRip-AVC] DUB +DUB [] bober100 Скачать
1 | 0
Фильмы [HD 720p, 1080p] (Хороший звук DUB, MVO) [ 4.27 GB ] Ужастики 2: Беспокойный Хэллоуин / Goosebumps 2: Haunted Halloween [2018 BDRip 720p] DUB [] bober100 Скачать
1 | 0

28-11-2019 20:33  

Отключить всю рекламу на сайте

    Дорогой пользователь! Огромная просьба, поблагодарите релизера, оцените раздачу и оставьте свои комментарий, если Вы скачали Ужастики через торрент бесплатно! Внесите свою лепту в развитие PiratBit!
    Комментировать посты могут только пользователи прошедшие не сложную регистрацию
    Показать сообщения:    

    Ужастики через торрент
    Скачать бесплатно Ужастики
    Ужастики скачать торрент
    Ужастики смотреть онлайн
    Cкачать фильм Ужастики бесплатно
    Ужастики скачать торрент в хорошем качестве
    Ужастики смотреть онлайн бесплатно в хорошем качестве


    Вы не можете начинать темы
    Вы не можете отвечать на сообщения
    Вы не можете редактировать свои сообщения
    Вы не можете удалять свои сообщения
    Вы не можете голосовать в опросах
    Вы не можете прикреплять файлы к сообщениям
    Вы можете скачивать файлы