Ссылка на приватное зеркало всего за 1$. Внимание количество ограничено!!!

OK

1+1

iTunes

мы

OK

1

WEB-DLRip

Джокер

Пифагор

Ведьмак / The Witcher сериал

iTunes

ПШазам

ОК

Оно 2

iTunes

30
pack

Вам бонус

ВАЖНО

!!Акция!!

Alien_RageХит недели

RePack

Resident Evil 21

ИГРА 18+

pack

RePack

jed

RePack

fifa19

RePack

Assassins Creed: Odyssey

RePack

NEED FOR SPEED™ PAYBACK

4 сезон

9 сезон

Бесстыжие 9 сезон

Все сериалы

все сериалы на PB.wtf

RePack

FAR CRY 5
  

Приключения Джо Грязнули 2 / Joe Dirt 2: Beautiful Loser (Фред Вульф) [2015 г., комедия, HDRip, Профессиональный многоголосый закадровый "iTunes"] pb.wtf

Приключения Джо Грязнули 2 через торрент pb.wtf

Размер: 2.19 GB | Добавлен: 4 года назад | Торрент скачан:304 раза
Скачать  

12-01-2016 18:10 Приключения Джо Грязнули 2 Скачать торрент  

Приключения Джо Грязнули 2 / Joe Dirt 2: Beautiful Loser
Год выпуска: 2015
Страна: США / Happy Madison Productions, Lifeboat Productions
Жанр: комедия
Продолжительность: 01:49:32
Перевод: Профессиональный многоголосый закадровый (iTunes)

Режиссер: Фред Вульф

IMDB 4.30 (2172)


В ролях: Дэвид Спейд, Бриттани Дэниэл, Патрик Варбертон, Марк МакГрат, Деннис Миллер, Кристофер Уокен, Тоби Бронсон, Рон Флагг, Ронда Дентс, Трэйси Вейсерт

Описание: Когда счастливый семьянин Джо Грязнуля находит себя перенесенным в недавнее прошлое, он начинает эпическое путешествие, чтобы вернуться к своим близким в настоящее время.

Доп. информация: На американском Blu-Ray вышла нецензурированная версия, которая длиннее на ~ 2.5 мин чем прокатная в России. Поэтому около 2-х минут нецензурированых сцен остались без перевода.

Качество: HDRip
Формат: AVI
Видео кодек: XviD
Аудио кодек: AC3
Видео: 720x400 (1.80:1), 23.976 fps, XviD build 50 ~2471 kbps avg, 0.36 bit/pixel
Аудио: 48 kHz, AC3 Dolby Digital, 3/2 (L,C,R,l,r) + LFE ch, ~384 kbps
скриншот   скриншот   скриншот   скриншот   скриншот   скриншот  

Общее
Полное имя : F:\кино\Приключения Джо Грязнули 2.2015.P.HDRip.avi
Формат : AVI
Формат/Информация : Audio Video Interleave
Профиль формата : OpenDML
Размер файла : 2,19 Гбайт
Продолжительность : 1 ч. 49 м.
Общий поток : 2862 Кбит/сек
Программа кодирования : VirtualDubMod 1.5.10.3 | www.virtualdub-fr.org || (build 2550/release)
Библиотека кодирования : VirtualDubMod build 2550/release

Видео
Идентификатор : 0
Формат : MPEG-4 Visual
Профиль формата : Advanced Simple@L5
Параметр BVOP формата : 2
Параметр QPel формата : Нет
Параметр GMC формата : Без точки перехода
Параметр матрицы формата : Default (H.263)
Идентификатор кодека : XVID
Идентификатор кодека/Подсказка : XviD
Продолжительность : 1 ч. 49 м.
Битрейт : 2467 Кбит/сек
Ширина : 720 пикселей
Высота : 400 пикселей
Соотношение сторон : 16:9
Частота кадров : 23,976 (23976/1000) кадра/сек
Цветовое пространство : YUV
Субдискретизация насыщенности : 4:2:0
Битовая глубина : 8 бит
Тип развёртки : Прогрессивная
Метод сжатия : С потерями
Бит/(Пиксели*Кадры) : 0.357
Размер потока : 1,89 Гбайт (86%)
Библиотека кодирования : XviD 1.2.1 (UTC 2008-12-04)

Аудио
Идентификатор : 1
Формат : AC-3
Формат/Информация : Audio Coding 3
Расширение режима : CM (complete main)
Параметр Endianness формата : Big
Идентификатор кодека : 2000
Продолжительность : 1 ч. 49 м.
Вид битрейта : Постоянный
Битрейт : 384 Кбит/сек
Каналы : 6 каналов
Расположение каналов : Front: L C R, Side: L R, LFE
Частота : 48,0 КГц
Частота кадров : 31,250 кадров/сек (1536 spf)
Метод сжатия : С потерями
Размер потока : 301 Мбайт (13%)
Выравнивание : Разделение по промежуткам
Продолжительность промежутка : 42 мс. (1,00 видеокадр)
Время предзагрузки промежутка : 500 мс.

pb.wtf



Скачать Приключения Джо Грязнули 2 через торрент http://pic.kartinco.top/images/11/enib7.jpg Скачать фильм Приключения Джо Грязнули 2 через торрент бесплантно в хорошем качестве Описание: Когда счастливый семьянин Джо Грязнуля находит себя перенесенным в недавнее прошлое, он начинает эпическое путешествие, чтобы ... 6.7 10 10
Info! Серебряная раздача, засчитывается только 50% скачанного.
Торрент: Зарегистрирован [2016-01-12 18:10] · скачан: 304 раз
Статус: √ проверено
Размер: 2.19 GB
Как cкачать? Как скачать Приключения Джо Грязнули 2 через торрент | qTorrent

% Раздел Тема Автор DL S | L
Фильмы 2015 [DVDrip, WEB-DLRip, HDrip] [ 1.37 GB ] Джо Грязнули 2 / Joe Dirt 2: Beautiful Loser [2015 HDRip] MVO $-DRON-$ Скачать
1 | 0
T Фильмы [HD 720p, 1080p] (Хороший звук DUB, MVO) [ 5.76 GB ] Джо Грязнули 2 / Joe Dirt 2: Beautiful Loser [2015 BDRip 720p] MVO $-DRON-$ Скачать
1 | 0
Фильмы 2015 [DVDrip, WEB-DLRip, HDrip] [ 2.05 GB ] Джо Грязнули 2 / Joe Dirt 2: Beautiful Loser [2015 HDRip] MVO $-DRON-$ Скачать
1 | 0

28-11-2019 20:33  

Отключить всю рекламу на сайте

26-01-2016 17:24 Приключения Джо Грязнули 2 Скачать торрент  

Спасибо, думаю стоит посмотреть. =)pb.wtf



18-02-2016 14:29 Приключения Джо Грязнули 2 Скачать торрент  

шлак полнейший,не смог досмотреть pb.wtf



    Дорогой пользователь! Огромная просьба, поблагодарите релизера, оцените раздачу и оставьте свои комментарий, если Вы скачали Приключения Джо Грязнули 2 через торрент бесплатно! Внесите свою лепту в развитие PiratBit!
    Комментировать посты могут только пользователи прошедшие не сложную регистрацию
    Показать сообщения:    

    Приключения Джо Грязнули 2 через торрент
    Скачать бесплатно Приключения Джо Грязнули 2
    Приключения Джо Грязнули 2 скачать торрент
    Приключения Джо Грязнули 2 смотреть онлайн
    Cкачать фильм Приключения Джо Грязнули 2 бесплатно
    Приключения Джо Грязнули 2 скачать торрент в хорошем качестве
    Приключения Джо Грязнули 2 смотреть онлайн бесплатно в хорошем качестве


    Вы не можете начинать темы
    Вы не можете отвечать на сообщения
    Вы не можете редактировать свои сообщения
    Вы не можете удалять свои сообщения
    Вы не можете голосовать в опросах
    Вы не можете прикреплять файлы к сообщениям
    Вы можете скачивать файлы