Ссылка на приватное зеркало всего за 1$. Внимание количество ограничено!!!

OK

1+1

iTunes

мы

OK

1

WEB-DLRip

Джокер

Пифагор

Ведьмак / The Witcher сериал

iTunes

ПШазам

ОК

Оно 2

iTunes

30
pack

Вам бонус

ВАЖНО

!!Акция!!

Alien_RageХит недели

RePack

Resident Evil 21

ИГРА 18+

pack

RePack

jed

RePack

fifa19

RePack

Assassins Creed: Odyssey

RePack

NEED FOR SPEED™ PAYBACK

4 сезон

9 сезон

Бесстыжие 9 сезон

Все сериалы

все сериалы на PB.wtf

RePack

FAR CRY 5
  

Ужастики / Goosebumps (Роб Леттерман / Rob Letterman) [2015, США, Австралия, фэнтези, комедия, приключения, BDRip-AVC от sokol_ok] DUB Лицензия pb.wtf

Ужастики через торрент pb.wtf

Раздают: 3 [ 36 KB/s ]
Размер: 1.46 GB | Добавлен: 3 года 9 мес. назад | Торрент скачан:338 раз
Скачать  

12-01-2016 21:23 Ужастики Скачать торрент  

Ужастики
Goosebumps

«The stories are alive»


Страна: США, Австралия
Жанр: фэнтези, комедия, приключения

Год выпуска: 2015
Продолжительность: 01:43:16

Перевод: Профессиональный (полное дублирование) [Лицензия Blu-ray CEE]
Субтитры: русские (форсированные, полные), украинские (форсированные, полные), английские (полные, SDH, SDH Colored)
Оригинальная аудиодорожка: нет

Режиссер: Роб Леттерман / Rob Letterman

В ролях: Дилан Миннетт, Одейя Раш, Эми Райан, Райан Ли, Джиллиан Белл, Джек Блэк, Кен Марино, Холстон Сейдж, Стивен Крюгер, Кит А. Болден, Аманда Ланд, Тимоти С. Саймонс

Описание:
Кошмары бывают разные. Вечно голодные оборотни, плохо воспитанные зомби, агрессивные садовые гномы и даже гигантский неуравновешенный снежный человек...
Все эти фантастические монстры и монстрики многие годы магическим образом удерживались на страницах знаменитых бестселлеров «Ужастики», пока по воле случая их не выпустили на свободу в реальный мир. Релиз:

Автор рипа: Stalker oK

Сэмпл

Качество видео: BDRip-AVC [HDCLUB / Blu-ray Remux / 1080p]
Формат видео: MKV
Видео кодек: AVC
Аудио кодек: AC3
Видео: 1578 Кбит/сек, 942x394 (2.40:1), 23,976 кадр/сек, AVC
Аудио: русский, 448 Кбит/сек, 48 КГц, 16 бит, 5.1, AC3
Навигация по главам: есть

Общее
Уникальный идентификатор : 215535917195382969688579696191052078896 (0xA226B52BF137891BB830CCCF07AE5F30)
Полное имя : M:\Rips2\Goosebumps\1\1\Goosebumps.2015.BDRip-AVC.Dub.1.45Gb.stalkerok.new-team.mkv
Формат : Matroska
Версия формата : Version 4 / Version 2
Размер файла : 1,46 Гбайт
Продолжительность : 1 ч. 43 м.
Общий поток : 2028 Кбит/сек
Название фильма : Goosebumps (2015) (New-Team) (Rip by Stalker oK)
Дата кодирования : UTC 2016-04-25 12:50:42
Программа кодирования : mkvmerge v8.6.1 ('Flying') 64bit
Библиотека кодирования : libebml v1.3.3 + libmatroska v1.4.4

Видео
Идентификатор : 1
Формат : AVC
Формат/Информация : Advanced Video Codec
Профиль формата : High@L4.1
Параметр CABAC формата : Да
Параметр ReFrames формата : 15 кадров
Идентификатор кодека : V_MPEG4/ISO/AVC
Продолжительность : 1 ч. 43 м.
Битрейт : 1578 Кбит/сек
Ширина : 942 пикселя
Высота : 394 пикселя
Соотношение сторон : 2,40:1
Режим частоты кадров : Постоянный
Частота кадров : 23,976 (24000/1001) кадра/сек
Цветовое пространство : YUV
Субдискретизация насыщенности : 4:2:0
Битовая глубина : 8 бит
Тип развёртки : Прогрессивная
Бит/(Пиксели*Кадры) : 0.177
Размер потока : 1,14 Гбайт (78%)
Заголовок : Goosebumps (2015) (New-Team) (Rip by Stalker oK)
Библиотека кодирования : x264 core 148 r2638kMod 7599210
Настройки программы : cabac=1 / ref=15 / deblock=1:-3:-3 / analyse=0x3:0x133 / me=umh / subme=11 / psy=1 / fade_compensate=0.00 / psy_rd=1.00:0.10 / mixed_ref=1 / me_range=48 / chroma_me=1 / trellis=2 / 8x8dct=1 / cqm=0 / deadzone=21,11 / fast_pskip=0 / chroma_qp_offset=-3 / threads=12 / lookahead_threads=3 / sliced_threads=0 / nr=0 / decimate=0 / interlaced=0 / bluray_compat=0 / constrained_intra=0 / fgo=0 / bframes=15 / b_pyramid=2 / b_adapt=2 / b_bias=0 / direct=3 / weightb=1 / open_gop=0 / weightp=2 / keyint=240 / keyint_min=23 / scenecut=40 / intra_refresh=0 / rc_lookahead=60 / rc=2pass / mbtree=0 / bitrate=1578 / ratetol=1.0 / qcomp=0.70 / qpmin=0 / qpmax=69 / qpstep=4 / cplxblur=20.0 / qblur=0.5 / vbv_maxrate=50000 / vbv_bufsize=62500 / nal_hrd=none / filler=0 / ip_ratio=1.40 / pb_ratio=1.30 / aq=3:0.90
Default : Да
Forced : Нет

Аудио
Идентификатор : 2
Формат : AC-3
Формат/Информация : Audio Coding 3
Расширение режима : CM (complete main)
Параметр Endianness формата : Big
Идентификатор кодека : A_AC3
Продолжительность : 1 ч. 43 м.
Вид битрейта : Постоянный
Битрейт : 448 Кбит/сек
Каналы : 6 каналов
Расположение каналов : Front: L C R, Side: L R, LFE
Частота : 48,0 КГц
Частота кадров : 31,250 кадров/сек (1536 spf)
Метод сжатия : С потерями
Размер потока : 331 Мбайт (22%)
Язык : Russian
Default : Да
Forced : Нет

Текст #1
Идентификатор : 3
Формат : UTF-8
Идентификатор кодека : S_TEXT/UTF8
Идентификатор кодека/Информация : UTF-8 Plain Text
Продолжительность : 1 ч. 33 м.
Битрейт : 1 бит/сек
Count of elements : 20
Размер потока : 796 байт (0%)
Заголовок : Forced, iTunes
Язык : Russian
Default : Да
Forced : Нет

Текст #2
Идентификатор : 4
Формат : UTF-8
Идентификатор кодека : S_TEXT/UTF8
Идентификатор кодека/Информация : UTF-8 Plain Text
Продолжительность : 1 ч. 34 м.
Битрейт : 91 бит/сек
Count of elements : 1229
Размер потока : 63,2 Кбайт (0%)
Заголовок : iTunes
Язык : Russian
Default : Нет
Forced : Нет

Текст #3
Идентификатор : 5
Формат : UTF-8
Идентификатор кодека : S_TEXT/UTF8
Идентификатор кодека/Информация : UTF-8 Plain Text
Продолжительность : 1 ч. 33 м.
Битрейт : 1 бит/сек
Count of elements : 20
Размер потока : 778 байт (0%)
Заголовок : Forced, iTunes
Язык : Ukrainian
Default : Нет
Forced : Нет

Текст #4
Идентификатор : 6
Формат : UTF-8
Идентификатор кодека : S_TEXT/UTF8
Идентификатор кодека/Информация : UTF-8 Plain Text
Продолжительность : 1 ч. 34 м.
Битрейт : 90 бит/сек
Count of elements : 1221
Размер потока : 62,3 Кбайт (0%)
Заголовок : iTunes
Язык : Ukrainian
Default : Нет
Forced : Нет

Текст #5
Идентификатор : 7
Формат : UTF-8
Идентификатор кодека : S_TEXT/UTF8
Идентификатор кодека/Информация : UTF-8 Plain Text
Продолжительность : 1 ч. 33 м.
Битрейт : 59 бит/сек
Count of elements : 1242
Размер потока : 40,7 Кбайт (0%)
Заголовок : full
Язык : English
Default : Нет
Forced : Нет

Текст #6
Идентификатор : 8
Формат : UTF-8
Идентификатор кодека : S_TEXT/UTF8
Идентификатор кодека/Информация : UTF-8 Plain Text
Продолжительность : 1 ч. 42 м.
Битрейт : 61 бит/сек
Count of elements : 1519
Размер потока : 46,0 Кбайт (0%)
Заголовок : SDH
Язык : English
Default : Нет
Forced : Нет

Меню
00:00:00.000 : en:Chapter 1
00:08:09.697 : en:Chapter 2
00:11:45.955 : en:Chapter 3
00:17:54.030 : en:Chapter 4
00:21:52.853 : en:Chapter 5
00:27:57.842 : en:Chapter 6
00:32:40.290 : en:Chapter 7
00:38:29.849 : en:Chapter 8
00:44:37.007 : en:Chapter 9
00:52:01.451 : en:Chapter 10
00:58:12.947 : en:Chapter 11
01:03:40.608 : en:Chapter 12
01:09:56.317 : en:Chapter 13
01:16:40.761 : en:Chapter 14
01:22:55.220 : en:Chapter 15
01:31:13.091 : en:Chapter 16
pb.wtf



Скачать Ужастики через торрент http://i72.fastpic.ru/big/2015/0531/46/68ef8a2783b58e5344cc30bbd3f1b046.png Скачать фильм Ужастики через торрент бесплантно в хорошем качестве Описание:Кошмары бывают разные. Вечно голодные оборотни, плохо воспитанные зомби, агрессивные садовые гномы и даже гигантский ... 9.3 10 16
Info! Золотая раздача, скачанное не засчитывается.
Торрент: Зарегистрирован [2016-04-25 13:50] · скачан: 338 раз
Статус: √ проверено
Размер: 1.46 GB
Как cкачать? Как скачать Ужастики через торрент | qTorrent

% Раздел Тема Автор DL S | L
Ultra HD (UHD: 2K, 4K, 8K) — видео сверхвысокой чёткости [ 52.4 GB ] Ужастики 2: Беспокойный Хэллоуин / Goosebumps 2: Haunted Halloween [2018 UHD Blu-ray EUR 2160p] DUB [] bober100 Скачать
1 | 0
Фильмы 2018 [DVDrip, WEB-DLRip, HDrip] (DUB, MVO) [ 749 MB ] Ужастики 2: Беспокойный Хэллоуин / Goosebumps 2: Haunted Halloween [2018 HDRip] DUB [] bober100 Скачать
1 | 0
Фильмы 2018 [DVDrip, WEB-DLRip, HDrip] (DUB, MVO) [ 1.46 GB ] Ужастики 2: Беспокойный Хэллоуин / Goosebumps 2: Haunted Halloween [2018 BDRip] DUB [ BD EUR] bober100 Скачать
1 | 0
Ultra HD (UHD: 2K, 4K, 8K) — видео сверхвысокой чёткости [ 43.93 GB ] Ужастики 2: Беспокойный Хэллоуин / Goosebumps 2: Haunted Halloween [2018 UHD BDRemux 2160p] DUB [] bober100 Скачать
2 | 0
Фильмы (Blu-ray, BD-Remux, HDDVD) [ 17.36 GB ] Ужастики 2: Беспокойный Хэллоуин / Goosebumps 2: Haunted Halloween [2018 BD Remux 1080p] DUB [] bober100 Скачать
1 | 0
Фильмы 2018 [DVDrip, WEB-DLRip, HDrip] (DUB, MVO) [ 1.84 GB ] Ужастики 2: Беспокойный Хэллоуин / Goosebumps 2: Haunted Halloween [2018 BDRip-AVC] DUB +DUB [] bober100 Скачать
2 | 0
Фильмы [HD 720p, 1080p] (Хороший звук DUB, MVO) [ 4.27 GB ] Ужастики 2: Беспокойный Хэллоуин / Goosebumps 2: Haunted Halloween [2018 BDRip 720p] DUB [] bober100 Скачать
1 | 0


Последний раз редактировалось: sokol_ok (2016-04-25 13:50), всего редактировалось 1 раз

28-11-2019 20:33  

Отключить всю рекламу на сайте

12-01-2016 21:55 Ужастики Скачать торрент  

«Ужастики», до «Джуманджи» все-таки не дотягивают, на «Чернильное сердце» тоже мало похожи — это легкое, увлекательное, весьма остроумное подростковое приключение с модным в наше время «лайт-хоррор»-флером.. Однако после своего окончания фильм не оставляет ничего – зарубку «как-нибудь пересмотрю» ему мысленно не ставишь..

Хотя кто знает, возможно, здесь дело во мне – будь мне 14 лет, я бы записал «Ужастики» в лучшие фильмы на свете..pb.wtf



12-01-2016 23:16 Ужастики Скачать торрент  

Интересный фильм, который стоит посмотреть. Хоть и сюжет весьма простенький, держит до самого конца.pb.wtf



25-04-2016 13:50 Ужастики Скачать торрент  

Торрент файл перезалит. Замена звука iTunes 384 kbps на Blu-ray CEE 448 kbps.pb.wtf



    Дорогой пользователь! Огромная просьба, поблагодарите релизера, оцените раздачу и оставьте свои комментарий, если Вы скачали Ужастики через торрент бесплатно! Внесите свою лепту в развитие PiratBit!
    Комментировать посты могут только пользователи прошедшие не сложную регистрацию
    Показать сообщения:    

    Ужастики через торрент
    Скачать бесплатно Ужастики
    Ужастики скачать торрент
    Ужастики смотреть онлайн
    Cкачать фильм Ужастики бесплатно
    Ужастики скачать торрент в хорошем качестве
    Ужастики смотреть онлайн бесплатно в хорошем качестве


    Вы не можете начинать темы
    Вы не можете отвечать на сообщения
    Вы не можете редактировать свои сообщения
    Вы не можете удалять свои сообщения
    Вы не можете голосовать в опросах
    Вы не можете прикреплять файлы к сообщениям
    Вы можете скачивать файлы