Ссылка на приватное зеркало всего за 1$. Внимание количество ограничено!!!

OK

1+1

iTunes

мы

OK

1

WEB-DLRip

Джокер

Пифагор

Ведьмак / The Witcher сериал

iTunes

ПШазам

ОК

Оно 2

iTunes

30
pack

Вам бонус

ВАЖНО

!!Акция!!

Alien_RageХит недели

RePack

Resident Evil 21

ИГРА 18+

pack

RePack

jed

RePack

fifa19

RePack

Assassins Creed: Odyssey

RePack

NEED FOR SPEED™ PAYBACK

4 сезон

9 сезон

Бесстыжие 9 сезон

Все сериалы

все сериалы на PB.wtf

RePack

FAR CRY 5
  

Иррациональный человек / Irrational Man (Вуди Аллен / Woody Allen) [2015, драма, детектив, BDRip-AVC от potroks] Dub [iTunes] pb.wtf

Иррациональный человек через торрент pb.wtf

Раздают: 3 [ 0 KB/s ]
Размер: 2.14 GB | Добавлен: 4 года назад | Торрент скачан:314 раз
Скачать  

12-01-2016 21:33 Иррациональный человек Скачать торрент  

Иррациональный человек / Irrational Man
Год выпуска: 2015
Страна: США / Gravier Productions
Жанр: драма, детектив
Продолжительность: 01:34:49
Перевод: Дубляж [iTunes]
Субтитры: английские (Full), английские (SDH)
Навигация по главам: есть
Режиссер: Вуди Аллен / Woody Allen
В ролях:

Хоакин Феникс (Abe), Эмма Стоун (Jill), Джейми Блэкли (Roy), Паркер Поузи (Rita), Джо Степлтон (Professor), Нэнси Кэрролл (Professor), Эллисон Галлерани (Braylin Student), Бригитт Ланди-Пейн (Braylin Student), Кэтлин Семер (Braylin Student), Бетси Айдем (Jill's Mother), Итэн Филлипс (Jill's Father), Леа Андерсон (Student Giving Directions)
Описание: Профессор философии Эйб Лукас опустошен: он не видит в своей жизни ни радости, ни смысла.
На лето Эйб приезжает преподавать в небольшой колледж, где у него завязываются отношения с двумя очень разными женщинами. Рита, его новая коллега, воображает, что именно он вызволит ее из несчастливого брака. А Джилл, его лучшая студентка, становится ему ближайшим другом. Но девушку неодолимо притягивают мятущаяся творческая натура Эйба и его загадочное прошлое, и она все больше отдаляется от своего бойфренда, Роя...
Все меняет невольно подслушанный Эйбом и Джилл разговор, после которого Эйб, стряхнув с себя равнодушие и отчаяние, решает действовать... Абсолютно иррационально.

Качество: BDRip-AVC
Формат: MKV
Видео кодек: AVC
Аудио кодек: AC3
Видео: 1152x480 (2.40:1), 2395 kbps, 23,976 fps, 0.181 bit/pixel
Аудио#1: AC3 / 5.1 / 48 kHz / 384 kbps / 16 bit | RUS
Аудио#2: AC3 / 5.1 / 48 kHz / 448 kbps / 16 bit | ENG

Релиз группы:
Автор рипа: potroks

Код:

General
Unique ID                   : 177774024103243811410733417473938685689 (0x85BE08194309EC1C870463340C35FEF9)
Complete name               : Irratcyonalnyi.Chelovek.2015.DUAL.BDRip.x264.-HELLYWOOD.mkv
Format                      : Matroska
Format version              : Version 4 / Version 2
File size                   : 2.14 GiB
Duration                    : 1h 34mn
Overall bit rate            : 3 226 Kbps
Movie name                  : Irrational Man (2015) - HELLYWOOD
Encoded date                : UTC 2010-02-22 21:41:31
Writing application         : mkvmerge v5.8.0 ('No Sleep / Pillow') built on Sep 30 2012 10:57:14
Writing library             : libebml v1.3.0 + libmatroska v1.4.0

Video
ID                          : 1
Format                      : AVC
Format/Info                 : Advanced Video Codec
Format profile              : High@L4.1
Format settings, CABAC      : Yes
Format settings, ReFrames   : 10 frames
Codec ID                    : V_MPEG4/ISO/AVC
Duration                    : 1h 34mn
Bit rate                    : 2 395 Kbps
Width                       : 1 152 pixels
Height                      : 480 pixels
Display aspect ratio        : 2.40:1
Frame rate mode             : Constant
Frame rate                  : 23.976 fps
Color space                 : YUV
Chroma subsampling          : 4:2:0
Bit depth                   : 8 bits
Scan type                   : Progressive
Bits/(Pixel*Frame)          : 0.181
Stream size                 : 1.54 GiB (72%)
Title                       : potroks
Writing library             : x264 core 146 r2538 121396c
Encoding settings           : cabac=1 / ref=10 / deblock=1:-2:-2 / analyse=0x3:0x113 / me=umh / subme=11 / psy=1 / psy_rd=1.00:0.05 / mixed_ref=1 / me_range=48 / chroma_me=1 / trellis=2 / 8x8dct=1 / cqm=0 / deadzone=21,11 / fast_pskip=0 / chroma_qp_offset=-3 / threads=9 / lookahead_threads=2 / sliced_threads=0 / nr=0 / decimate=0 / interlaced=0 / bluray_compat=0 / constrained_intra=0 / bframes=11 / b_pyramid=2 / b_adapt=2 / b_bias=0 / direct=3 / weightb=1 / open_gop=0 / weightp=2 / keyint=240 / keyint_min=23 / scenecut=40 / intra_refresh=0 / rc_lookahead=60 / rc=2pass / mbtree=0 / bitrate=2395 / ratetol=1.0 / qcomp=0.70 / qpmin=0 / qpmax=69 / qpstep=4 / cplxblur=20.0 / qblur=0.5 / vbv_maxrate=14000 / vbv_bufsize=14000 / nal_hrd=none / filler=0 / ip_ratio=1.40 / pb_ratio=1.30 / aq=1:0.80
Language                    : English
Default                     : Yes
Forced                      : No

Audio #1
ID                          : 2
Format                      : AC-3
Format/Info                 : Audio Coding 3
Mode extension              : CM (complete main)
Format settings, Endianness : Big
Codec ID                    : A_AC3
Duration                    : 1h 34mn
Bit rate mode               : Constant
Bit rate                    : 384 Kbps
Channel(s)                  : 6 channels
Channel positions           : Front: L C R, Side: L R, LFE
Sampling rate               : 48.0 KHz
Frame rate                  : 31.250 fps (1536 spf)
Compression mode            : Lossy
Stream size                 : 260 MiB (12%)
Title                       : Dub | DD 5.1 @ 384 kbps - iTunes
Language                    : Russian
Default                     : Yes
Forced                      : No

Audio #2
ID                          : 3
Format                      : AC-3
Format/Info                 : Audio Coding 3
Mode extension              : CM (complete main)
Format settings, Endianness : Big
Codec ID                    : A_AC3
Duration                    : 1h 34mn
Bit rate mode               : Constant
Bit rate                    : 448 Kbps
Channel(s)                  : 6 channels
Channel positions           : Front: L C R, Side: L R, LFE
Sampling rate               : 48.0 KHz
Frame rate                  : 31.250 fps (1536 spf)
Compression mode            : Lossy
Stream size                 : 304 MiB (14%)
Title                       : Original | DD 5.1 @ 448 kbps
Language                    : English
Default                     : No
Forced                      : No

Text #1
ID                          : 4
Format                      : UTF-8
Codec ID                    : S_TEXT/UTF8
Codec ID/Info               : UTF-8 Plain Text
Title                       : Full
Language                    : English
Default                     : No
Forced                      : No

Text #2
ID                          : 5
Format                      : UTF-8
Codec ID                    : S_TEXT/UTF8
Codec ID/Info               : UTF-8 Plain Text
Title                       : SDH
Language                    : English
Default                     : No
Forced                      : No

Menu
00:00:00.000                : en:Chapter 01
00:04:40.113                : en:Chapter 02
00:09:23.688                : en:Chapter 03
00:13:29.850                : en:Chapter 04
00:17:54.323                : en:Chapter 05
00:23:17.646                : en:Chapter 06
00:30:58.147                : en:Chapter 07
00:38:20.881                : en:Chapter 08
00:45:41.071                : en:Chapter 09
00:54:50.287                : en:Chapter 10
01:00:09.981                : en:Chapter 11
01:04:34.912                : en:Chapter 12
01:09:43.804                : en:Chapter 13
01:13:58.475                : en:Chapter 14
01:20:16.019                : en:Chapter 15
01:26:02.115                : en:Chapter 16

pb.wtf



Скачать Иррациональный человек через торрент http://i73.fastpic.ru/big/2016/0112/9a/afdd1e318ce89201633bfca30f61f79a.png Скачать фильм Иррациональный человек через торрент бесплантно в хорошем качестве Описание: Профессор философии Эйб Лукас опустошен: он не видит в своей жизни ни радости, ни смысла.На лето Эйб приезжает преподавать в ... 9.9 10 8
Info! Золотая раздача, скачанное не засчитывается.
Торрент: Зарегистрирован [2016-01-12 21:33] · скачан: 314 раз
Статус: √ проверено
Размер: 2.14 GB
Как cкачать? Как скачать Иррациональный человек через торрент | qTorrent

% Раздел Тема Автор DL S | L
Фильмы [HD 720p, 1080p] (Хороший звук DUB, MVO) [ 10.62 GB ] Иррациональный человек / Irrational Man [2015 BDRip 1080p от NNNB] DUB + AVO + Original + Sub _denis_100 Скачать
1 | 0
Фильмы [HD 720p, 1080p] (Хороший звук DUB, MVO) [ 5.65 GB ] Иррациональный человек / Irrational Man [2015 BDRip 720p от _denis_100 / NNNB] DUB + AVO + Original + Sub _denis_100 Скачать
1 | 0
Фильмы (DVD фильмы) [ 5.17 GB ] Иррациональный человек / Irrational Man [2015 DVD9] R5 voovaz Скачать
1 | 0
Фильмы (Blu-ray, BD-Remux, HDDVD) [ 17.28 GB ] Иррациональный человек / Irrational Man [2015 BDRemux / ] Ворон Скачать
1 | 0
R.G. Resident & PiratVoice - Фильмы, Видео [ 9.15 GB ] Иррациональный человек / Irrational Man [2015 BDRip 1080p ] schultz Скачать
1 | 0
Фильмы 2015 [DVDrip, WEB-DLRip, HDrip] [ 2.14 GB ] Иррациональный человек / Irrational Man [2015 BDRip-AVC от sokol_ok] Dub sokol_ok Скачать
2 | 0
Фильмы 2015 [DVDrip, WEB-DLRip, HDrip] [ 1.42 GB ] Иррациональный человек / Irrational Man [2015 BDRip-AVC от sokol_ok] Dub sokol_ok Скачать
3 | 0

28-11-2019 20:33  

Отключить всю рекламу на сайте


13-01-2016 12:26 Иррациональный человек Скачать торрент  

нуднятинка(((pb.wtf



    Дорогой пользователь! Огромная просьба, поблагодарите релизера, оцените раздачу и оставьте свои комментарий, если Вы скачали Иррациональный человек через торрент бесплатно! Внесите свою лепту в развитие PiratBit!
    Комментировать посты могут только пользователи прошедшие не сложную регистрацию
    Показать сообщения:    

    Иррациональный человек через торрент
    Скачать бесплатно Иррациональный человек
    Иррациональный человек скачать торрент
    Иррациональный человек смотреть онлайн
    Cкачать фильм Иррациональный человек бесплатно
    Иррациональный человек скачать торрент в хорошем качестве
    Иррациональный человек смотреть онлайн бесплатно в хорошем качестве


    Вы не можете начинать темы
    Вы не можете отвечать на сообщения
    Вы не можете редактировать свои сообщения
    Вы не можете удалять свои сообщения
    Вы не можете голосовать в опросах
    Вы не можете прикреплять файлы к сообщениям
    Вы можете скачивать файлы