Ссылка на приватное зеркало нашего сайта всего за 1$. Внимание количество ограничено!!!

2 сезон

iTunes

1 сезон

1

2 сезон

2 сезон

iTunes

1 сезон

RePack

30

Ultimate

ВАЖНО

ИГРА 18+

pack

RePack

MK11
pack

Забери бонус

RePack

jed

!!Акция!!

Alien_Rage

RePack

fifa19

RePack

Assassins Creed: Odyssey

RePack

NEED FOR SPEED™ PAYBACK

4 сезон

9 сезон

Бесстыжие 9 сезон

Все сериалы

все сериалы на PB.wtf

RePack

FAR CRY 5
  

Беовульф / Beowulf: Return to the Shieldlands / Сезон: 1 / Серии 1-12 из 12 (Джон Ист) [2016, Фэнтези, Боевик, Драма, Приключения, WEB-DLRip] MVO BaibaKo pb.wtf

Беовульф через торрент pb.wtf

Размер: 7.14 GB | Добавлен: 4 года 8 мес. назад | Торрент скачан:54 раза
Скачать  

13-01-2016 06:22 Беовульф Скачать торрент  

Беовульф / Beowulf: Return to the Shieldlands

---
---
---
---
---

Год выпуска: 2016
Страна: США
Жанр: Фэнтези, Боевик, Драма, Приключения
Продолжительность серии: ~ 00:45:00 x 12
Перевод: Любительский многоголосый BaibaKo
Реклама: В релизе присутствует реклама казино




Номер сезона: 1
Номер серии (эпизода): 1-12 из 12




Режиссер: Джон Ист, Джулиан Холмс, Марек Лоузи
Продюссер: Уилл Николсон, Джеймс Дормер, Стивен Смоллвуд
Сценарий: Джеймс Дормер, Гай Берт, Майкл А. Уокер




Премьера в мире: 3 января 2016









В ролях:

Кирсти Освальд, Пабло Вердехо, Дэвид Аджала, Джои Анса, Киран Бью, Лолита Чакрабарти, Уильям Хёрт, Алекс Прайс, Иан Палстон-Дэвис




Описание: Местом действия фэнтези-драмы станут полные опасности бескрайние земли Шилдленда, населенного не только людьми, но и всевозможными фантастическими существами. В центре сюжета окажется скандинавский воин-наемник Беовульф. Спустя многие годы, проведенные в скитаниях и сражениях, Беовульф возвращается в Хеорот, засвидетельствовать свое почтение к недавно умершему правителю и давнему другу Хродгару. Но когда на Хеорот нападает ужасное чудовище Грендель, Беовульфу не остается ничего другого, кроме как сразиться с чудовищем, завоевав благосклонность новой правительницы Таны и всего народа.




Качество: WEB-DLRip
[Формат: AVI
Видео кодек: XviD
Аудио кодек: MP3
Видео: 720х400, XviD, 25 fps, ~ 1500 kbps
Аудио#1: Русский - MP3, 2 ch, 48 kHz, 192 kbps
Аудио#2: Английский -MP3, 2 ch, 48 kHz, 192 kbps
Субтитры: Нет


скриншот  скриншот  скриншот  скриншот  скриншот  

General
Название : D:\Beowulf.s01\Beowulf.Return.To.The.Shieldlands.s01e01.WEB-DLRip.XviD.Rus.Eng.BaibaKo.tv.avi
Формат : AVI
Формат/Info : Audio Video Interleave
Размер файла : 613 MiB
Длительность : 45mn 23s
Общий Битрейт : 1 889 Kbps

Video #0
ID : 0
Формат : MPEG-4 Visual
Формат profile : Advanced Simple@L5
Формат настройки, BVOP : 2
Формат настройки, QPel : No
Формат настройки, GMC : No warppoints
Формат настройки, Matrix : Default (H.263)
Кодек ID : XVID
Кодек ID/Hint : XviD
Длительность : 45mn 23s
Битрейт : 1 497 Kbps
Width : 720 пикселей
Высота : 400 пикселей
Соотношение кадра : 16:9
Частота кадров : 25.000 fps
Цветопередача : YUV
Chroma subsampling : 4:2:0
Разрядность : 8 bits
Тип сканирования : Progressive
Режим сжатия : Lossy
Bits/(Pixel*Frame) : 0.208
Размер потока : 486 MiB (79%)
Writing library : XviD 67

Audio #1
ID : 1
Формат : MPEG Audio
Формат version : Version 1
Формат profile : Layer 3
Mode : Joint stereo
Расширение режима : MS Stereo
Кодек ID : 55
Кодек ID/Hint : MP3
Длительность : 45mn 23s
Битрейт mode : Constant
Битрейт : 192 Kbps
Channel(s) : 2 канала
Частота : 48.0 KHz
Режим сжатия : Lossy
Размер потока : 62.3 MiB (10%)
Выравнивание : Aligned on interleaves
Interleave, Длительность : 160 ms (4.00 video frames)
Interleave, preload Длительность : 216 ms
Title : Beowulf.Return.To.The.Shieldlands.s01e01.HD1080p.WEB-DL.Rus.Eng.BaibaKo.tv - [0] Russian_audio
Writing library : LAME3.99r
Encoding настройки : -m j -V 4 -q 2 -lowpass 18.6 -b 192

Audio #2
ID : 2
Формат : MPEG Audio
Формат version : Version 1
Формат profile : Layer 3
Mode : Joint stereo
Расширение режима : MS Stereo
Кодек ID : 55
Кодек ID/Hint : MP3
Длительность : 45mn 23s
Битрейт mode : Constant
Битрейт : 192 Kbps
Channel(s) : 2 канала
Частота : 48.0 KHz
Режим сжатия : Lossy
Размер потока : 62.3 MiB (10%)
Выравнивание : Aligned on interleaves
Interleave, Длительность : 160 ms (4.00 video frames)
Interleave, preload Длительность : 216 ms
Title : Beowulf.Return.To.The.Shieldlands.s01e01.HD1080p.WEB-DL.Rus.Eng.BaibaKo.tv - [1] English_audio
Writing library : LAME3.99r
Encoding настройки : -m j -V 4 -q 2 -lowpass 18.6 -b 192
Внимание! Раздача ведётся путём добавления новых серий; при каждом добавлении создётся новый торрент. Чтобы начать докачку новой серии, пользователям необходимо сделать следующее:

1. Остановить скачивание,
2. Удалить старый торрент у себя из клиента (старые серии удалять не надо),
3. Скачать новый торрент и запустить его у себя в клиенте вместо старого, при этом указать клиенту путь в старую папку куда и должно происходить скачивание новых серий.

Ваш клиент при этом должен произвести хеширование (проверку) старой папки (если не производит сам - помогите ему сделать это), и будет докачивать только те серии которых у вас ещё нет. Старые серии при этом не удаляются, а продолжают раздаваться!

Eсли вы уже удалили старые серии, то предотвратить повторную закачку старых серий можно, отжав галочку в соответсвующих местах при запуске нового торрента. По возможности, желательно не удалять старые серии как можно дольше чтобы релизёр не столько продолжал раздавать старые серии, а смог сконцентрироваться на новых.
_Добавлена 12 серия.. (24.03.2016) Финал сезона.. Просьба перекачать торрент файл..
_

pb.wtf



Скачать Беовульф через торрент http://pic.kartinco.top/images/11/dmw1n.jpg Скачать фильм Беовульф через торрент бесплантно в хорошем качестве Описание: Местом действия фэнтези-драмы станут полные опасности бескрайние земли Шилдленда, населенного не только людьми, но и ... 9.6 10 20
Info! Золотая раздача, скачанное не засчитывается.
Торрент: Зарегистрирован [2016-03-24 00:03] · скачан: 54 раз
Статус: √ проверено
Размер: 7.14 GB
Как cкачать? Как скачать Беовульф через торрент | qTorrent

% Раздел Тема Автор DL S | L
Зарубежные сериалы [ 22.57 GB ] Беовульф / Beowulf: Return to the Shieldlands / Сезон: 1 / Серии 1-12 из 12 [2016 WEB-DLRip 1080p] MVO BaibaKo MicroCharmelle Скачать
1 | 0
Зарубежные сериалы [ 18.39 GB ] Беовульф / Beowulf: Return to the Shieldlands / Сезон: 1 / Серии 1-12 из 12 [2016 WEB-DLRip 720p] MVO BaibaKo MicroCharmelle Скачать
1 | 0


Последний раз редактировалось: MicroCharmelle (2016-03-28 00:21), всего редактировалось 12 раз(а)

28-11-2019 20:33  

Отключить всю рекламу на сайте

23-01-2016 08:20 Беовульф Скачать торрент  

Х - так себе сериал)pb.wtf



    Дорогой пользователь! Огромная просьба, поблагодарите релизера, оцените раздачу и оставьте свои комментарий, если Вы скачали Беовульф через торрент бесплатно! Внесите свою лепту в развитие PiratBit!
    Комментировать посты могут только пользователи прошедшие не сложную регистрацию
    Показать сообщения:    

    Беовульф через торрент
    Скачать бесплатно Беовульф
    Беовульф скачать торрент
    Беовульф смотреть онлайн
    Cкачать фильм Беовульф бесплатно
    Беовульф скачать торрент в хорошем качестве
    Беовульф смотреть онлайн бесплатно в хорошем качестве


    Вы не можете начинать темы
    Вы не можете отвечать на сообщения
    Вы не можете редактировать свои сообщения
    Вы не можете удалять свои сообщения
    Вы не можете голосовать в опросах
    Вы не можете прикреплять файлы к сообщениям
    Вы можете скачивать файлы