>

5.6

iTunes

6.1

MVO

5.7

MVO

1

7.4

1 сезон

6.8

iTunes

7.2

1 сезон

13

6.7

1 сезон

8.3

RePack

30

Deluxe

pack

9.9

Лицензия

ВАЖНО

ИГРА 18+

pack

7.3

RePack

MK11

7.7

RePack

jed

7.8

RePack

fifa19

8.5

RePack

RDR2

RePack

NEED FOR SPEED™ PAYBACK

4 сезон

9 сезон

Бесстыжие 9 сезон

Все сериалы

все сериалы на PB.wtf

RePack

FAR CRY 5

Anonymous, добрый день, мы катастрофически не успеваем собрать деньги на оплату серверов, помогите нам пожалуйста 5,10,15р., для нас важна любая помощь . В качестве благодарности мы отключим Вам всю рекламу на сайте (укажите свой ник в строку Ваше имя)!

×
  
Magnet ссылка

Школа злословия (Абрам Роом, Николай Горчаков) [1952, СССР, комедия, DVDRip-AVC от AVP Studio] pb.wtf

Школа злословия через торрент pb.wtf

Размер: 2.18 GB | Добавлен: 5 лет 8 мес. назад | Торрент скачан:29 раз
Смотреть онлайн Школа злословия | Скачать    Ребята, помогите собрать деньги на оплату серверов!!!

13-01-2016 10:02 Школа злословия Скачать торрент  

Школа злословия
Страна: СССР
Производство: Мосфильм

Жанр: комедия
Год выпуска: 1952
Продолжительность: 02:31:17

Перевод: Не требуется
Cубтитры: нет
Оригинальная аудиодорожка: русский

Режиссер: Абрам Роом, Николай Горчаков

В ролях:
Михаил Яншин, Ольга Андровская, Владимир Ершов, Анатолий Кторов, Павел Массальский, Тамара Михеева, Мария Дурасова, Евдокия Алеева, Владимир Попов, Григорий Конский, Евгений Калужский, Александр Комиссаров, Алексей Жильцов, Василий Марков, Александр Карев, Леонид Еремеев, Максим Чернобровцев...
Полный список актёров

Описание:
Фильм-спектакль по одноименной комедии Ричарда Шеридана.
Постановка МХАТ имени М.Горького.
Фильм об интригах, замешанных на любви и ревности, о злых языках и о нравах, царящих в высшем свете в Англии XVIII века.
Специально для этого спектакля Ольга Андровская научилась играть на арфе, а Михаил Яншин - на флейте.

Источник: DVD5 R5
Качество видео: DVDRip-AVC
Формат видео: MKV

Видео: 696->758x568 (4:3), 25 fps, H264 ~ 1867 kbps avg, 0.189 bit/pixel
Аудио: 48 kHz, Dolby Digital AC3 2.0, 192 kbps

Раздача от:
Общее
Полное имя : Shkola.zlosloviya.1952.DVDRip-AVC_[New-team]_by_AVP_Studio.mkv
Формат : Matroska
Версия формата : Version 2
Размер файла : 2,18 Гбайт
Продолжительность : 2 ч. 31 м.
Общий поток : 2061 Кбит/сек
Дата кодирования : UTC 2016-01-12 13:31:31
Программа кодирования : mkvmerge v6.1.0 ('Old Devil') built on Mar 4 2013 09:10:42
Библиотека кодирования : libebml v1.3.0 + libmatroska v1.4.0

Видео
Идентификатор : 1
Формат : AVC
Формат/Информация : Advanced Video Codec
Профиль формата : High@L4.1
Параметр CABAC формата : Да
Параметр ReFrames формата : 10 кадров
Идентификатор кодека : V_MPEG4/ISO/AVC
Продолжительность : 2 ч. 31 м.
Битрейт : 1867 Кбит/сек
Ширина : 696 пикселей
Высота : 568 пикселей
Соотношение сторон : 4:3
Режим частоты кадров : Постоянный
Частота кадров : 25,000 кадров/сек
Цветовое пространство : YUV
Субдискретизация насыщенности : 4:2:0
Битовая глубина : 8 бит
Тип развёртки : Прогрессивная
Бит/(Пиксели*Кадры) : 0.189
Размер потока : 1,93 Гбайт (89%)
Библиотека кодирования : x264 core 130 r2273 b3065e6
Настройки программы : cabac=1 / ref=10 / deblock=1:-2:-1 / analyse=0x3:0x113 / me=umh / subme=10 / psy=1 / psy_rd=1.00:0.00 / mixed_ref=1 / me_range=32 / chroma_me=1 / trellis=2 / 8x8dct=1 / cqm=0 / deadzone=21,11 / fast_pskip=1 / chroma_qp_offset=-2 / threads=6 / lookahead_threads=1 / sliced_threads=0 / nr=0 / decimate=0 / interlaced=0 / bluray_compat=0 / constrained_intra=0 / bframes=8 / b_pyramid=2 / b_adapt=2 / b_bias=0 / direct=3 / weightb=1 / open_gop=0 / weightp=2 / keyint=250 / keyint_min=25 / scenecut=40 / intra_refresh=0 / rc=2pass / mbtree=0 / bitrate=1867 / ratetol=1.0 / qcomp=0.60 / qpmin=0 / qpmax=69 / qpstep=4 / cplxblur=20.0 / qblur=0.5 / ip_ratio=1.40 / pb_ratio=1.30 / aq=1:1.00
Default : Да
Forced : Нет

Аудио
Идентификатор : 2
Формат : AC-3
Формат/Информация : Audio Coding 3
Расширение режима : CM (complete main)
Параметр Endianness формата : Big
Идентификатор кодека : A_AC3
Продолжительность : 2 ч. 31 м.
Вид битрейта : Постоянный
Битрейт : 192 Кбит/сек
Каналы : 2 канала
Расположение каналов : Front: L R
Частота : 48,0 КГц
Частота кадров : 31,250 кадров/сек (1536 spf)
Метод сжатия : С потерями
Размер потока : 208 Мбайт (9%)
Default : Да
Forced : Нет
pb.wtf



Скачать Школа злословия через торрент http://s019.radikal.ru/i615/1601/40/68e268f5212c.png Скачать, смотреть онлайн Школа злословия бесплантно в хорошем качестве Описание:Фильм-спектакль по одноименной комедии Ричарда Шеридана.Постановка МХАТ имени М.Горького.Фильм об интригах, замешанных на любви и ... 10 10 2
Info! Золотая раздача, скачанное не засчитывается.
Торрент: Зарегистрирован [2016-01-13 10:02] · скачан: 29 раз
Статус: √ проверено
Размер: 2.18 GB
Как cкачать? Как скачать Школа злословия через торрент | UTorrent

% Раздел Тема Автор DL S | L
Кино СССР [ 1.1 GB ] Школа злословия [1952 СССР DVDRip от AVP Studio] AVP Studio Скачать
1 | 0
Кино СССР [ 2.18 GB ] Школа злословия [1952 СССР DVDRip от AVP Studio] AVP Studio Скачать
1 | 0

28-11-2019 20:33  

Отключить всю рекламу на сайте

    Дорогой пользователь! Огромная просьба, поблагодарите релизера, оцените раздачу и оставьте свои комментарий, если Вы скачали Школа злословия через торрент бесплатно!
    Комментировать посты могут только пользователи прошедшие не сложную регистрацию
    Показать сообщения:    

    Школа злословия через торрент
    Скачать бесплатно Школа злословия
    Школа злословия скачать торрент
    Школа злословия смотреть онлайн
    Cкачать фильм Школа злословия бесплатно
    Школа злословия скачать торрент в хорошем качестве
    Школа злословия смотреть онлайн бесплатно в хорошем качестве


    Вы не можете начинать темы
    Вы не можете отвечать на сообщения
    Вы не можете редактировать свои сообщения
    Вы не можете удалять свои сообщения
    Вы не можете голосовать в опросах
    Вы не можете прикреплять файлы к сообщениям
    Вы можете скачивать файлы