Ссылка на приватное зеркало всего за 1$. Внимание количество ограничено!!!

OK

1+1

iTunes

мы

OK

1

WEB-DLRip

Джокер

Пифагор

Ведьмак / The Witcher сериал

Лицензия

ПШазам

ОК

Оно 2

iTunes

30
pack

Вам бонус

ВАЖНО

!!Акция!!

Alien_RageХит недели

RePack

Resident Evil 21

ИГРА 18+

pack

RePack

jed

RePack

fifa19

RePack

Assassins Creed: Odyssey

RePack

NEED FOR SPEED™ PAYBACK

4 сезон

9 сезон

Бесстыжие 9 сезон

Все сериалы

все сериалы на PB.wtf

RePack

FAR CRY 5
  

Ужастики / Goosebumps (Роб Леттерман / Rob Letterman) [2015, фэнтези, комедия, приключения, BDRip-AVC от potroks] Dub [iTunes] pb.wtf

Ужастики через торрент pb.wtf

Размер: 1.42 GB | Добавлен: 4 года назад | Торрент скачан:270 раз
Скачать  

13-01-2016 10:05 Ужастики Скачать торрент  

Ужастики / Goosebumps
«The stories are alive»
Год выпуска: 2015
Страна: США, Австралия / Columbia Pictures, Sony Pictures Animation...
Жанр: фэнтези, комедия, приключения
Продолжительность: 01:43:59
Перевод: Дубляж [iTunes]
Субтитры: русские (полные + форс.)
Навигация по главам: есть
Режиссер: Роб Леттерман / Rob Letterman
В ролях:

Дилан Миннетт (Zach), Одейя Раш (Hannah), Эми Райан (Gale), Райан Ли (Champ), Джиллиан Белл (Lorraine), Джек Блэк (R. L. Stine / Slappy / Invisible Boy, озвучка), Кен Марино (Coach Carr), Холстон Сейдж (Taylor), Стивен Крюгер (Davidson), Кит А. Болден (Principal Garrison), Аманда Ланд (Officer Brooks), Тимоти С. Саймонс (Officer Stevens)
Описание: Кошмары бывают разные. Вечно голодные оборотни, плохо воспитанные зомби, агрессивные садовые гномы и даже гигантский неуравновешенный снежный человек...
Все эти фантастические монстры и монстрики многие годы магическим образом удерживались на страницах знаменитых бестселлеров «Ужастики», пока по воле случая их не выпустили на свободу в реальный мир.

Качество: BDRip-AVC
Формат: MKV
Видео кодек: AVC
Аудио кодек: AC3
Видео: 996x416 (2.40:1), 1576 kbps, 23,976 fps, 0.159 bit/pixel
Аудио: AC3 / 5.1 / 48 kHz / 384 kbps / 16 bit

Релиз группы:
Автор рипа: potroks

Код:

General
Unique ID                   : 247391854309223074243233809225933379009 (0xBA1DF02227A485929301CCA59623D5C1)
Complete name               : Uzhastiki.2015.RUS.BDRip.x264.-HELLYWOOD.mkv
Format                      : Matroska
Format version              : Version 4 / Version 2
File size                   : 1.42 GiB
Duration                    : 1h 43mn
Overall bit rate            : 1 962 Kbps
Movie name                  : Goosebumps (2015) - HELLYWOOD
Encoded date                : UTC 2010-02-22 21:41:31
Writing application         : mkvmerge v5.8.0 ('No Sleep / Pillow') built on Sep 30 2012 10:57:14
Writing library             : libebml v1.3.0 + libmatroska v1.4.0

Video
ID                          : 1
Format                      : AVC
Format/Info                 : Advanced Video Codec
Format profile              : High@L4.1
Format settings, CABAC      : Yes
Format settings, ReFrames   : 12 frames
Codec ID                    : V_MPEG4/ISO/AVC
Duration                    : 1h 43mn
Bit rate                    : 1 576 Kbps
Width                       : 996 pixels
Height                      : 416 pixels
Display aspect ratio        : 2.40:1
Frame rate mode             : Constant
Frame rate                  : 23.976 fps
Color space                 : YUV
Chroma subsampling          : 4:2:0
Bit depth                   : 8 bits
Scan type                   : Progressive
Bits/(Pixel*Frame)          : 0.159
Stream size                 : 1.11 GiB (78%)
Title                       : potroks
Writing library             : x264 core 146 r2538 121396c
Encoding settings           : cabac=1 / ref=12 / deblock=1:-2:-2 / analyse=0x3:0x113 / me=umh / subme=11 / psy=1 / psy_rd=1.04:0.09 / mixed_ref=1 / me_range=48 / chroma_me=1 / trellis=2 / 8x8dct=1 / cqm=0 / deadzone=21,11 / fast_pskip=0 / chroma_qp_offset=-3 / threads=9 / lookahead_threads=2 / sliced_threads=0 / nr=0 / decimate=1 / interlaced=0 / bluray_compat=0 / constrained_intra=0 / bframes=13 / b_pyramid=2 / b_adapt=2 / b_bias=0 / direct=3 / weightb=1 / open_gop=0 / weightp=2 / keyint=240 / keyint_min=23 / scenecut=40 / intra_refresh=0 / rc_lookahead=60 / rc=2pass / mbtree=0 / bitrate=1576 / ratetol=1.0 / qcomp=0.70 / qpmin=0 / qpmax=69 / qpstep=4 / cplxblur=20.0 / qblur=0.5 / vbv_maxrate=14000 / vbv_bufsize=14000 / nal_hrd=none / filler=0 / ip_ratio=1.40 / pb_ratio=1.30 / aq=1:0.80
Language                    : English
Default                     : Yes
Forced                      : No

Audio
ID                          : 2
Format                      : AC-3
Format/Info                 : Audio Coding 3
Mode extension              : CM (complete main)
Format settings, Endianness : Big
Codec ID                    : A_AC3
Duration                    : 1h 43mn
Bit rate mode               : Constant
Bit rate                    : 384 Kbps
Channel(s)                  : 6 channels
Channel positions           : Front: L C R, Side: L R, LFE
Sampling rate               : 48.0 KHz
Frame rate                  : 31.250 fps (1536 spf)
Compression mode            : Lossy
Stream size                 : 284 MiB (20%)
Title                       : Dub | DD 5.1 @ 384 kbps - iTunes
Language                    : Russian
Default                     : Yes
Forced                      : No

Text #1
ID                          : 3
Format                      : UTF-8
Codec ID                    : S_TEXT/UTF8
Codec ID/Info               : UTF-8 Plain Text
Title                       : Forced
Language                    : Russian
Default                     : Yes
Forced                      : No

Text #2
ID                          : 4
Format                      : UTF-8
Codec ID                    : S_TEXT/UTF8
Codec ID/Info               : UTF-8 Plain Text
Title                       : iTunes
Language                    : Russian
Default                     : No
Forced                      : No

Menu
00:00:00.000                : en:00:00:00.000
00:08:09.698                : en:00:08:09.698
00:11:45.955                : en:00:11:45.955
00:17:54.031                : en:00:17:54.031
00:21:52.853                : en:00:21:52.853
00:27:57.843                : en:00:27:57.843
00:32:40.292                : en:00:32:40.292
00:38:29.849                : en:00:38:29.849
00:44:37.008                : en:00:44:37.008
00:52:01.452                : en:00:52:01.452
00:58:12.948                : en:00:58:12.948
01:03:40.608                : en:01:03:40.608
01:09:56.317                : en:01:09:56.317
01:16:40.763                : en:01:16:40.763
01:22:55.220                : en:01:22:55.220
01:31:13.093                : en:01:31:13.093

pb.wtf



Скачать Ужастики через торрент http://i73.fastpic.ru/big/2016/0113/b3/9f21feed881fd319c2db3fdb3bb83bb3.png Скачать фильм Ужастики через торрент бесплантно в хорошем качестве Описание: Кошмары бывают разные. Вечно голодные оборотни, плохо воспитанные зомби, агрессивные садовые гномы и даже гигантский ... 7 10 3
Info! Золотая раздача, скачанное не засчитывается.
Торрент: Зарегистрирован [2016-01-13 10:05] · скачан: 270 раз
Статус: √ проверено
Размер: 1.42 GB
Как cкачать? Как скачать Ужастики через торрент | qTorrent

% Раздел Тема Автор DL S | L
Ultra HD (UHD: 2K, 4K, 8K) — видео сверхвысокой чёткости [ 52.4 GB ] Ужастики 2: Беспокойный Хэллоуин / Goosebumps 2: Haunted Halloween [2018 UHD Blu-ray EUR 2160p] DUB [] bober100 Скачать
1 | 0
Фильмы 2018 [DVDrip, WEB-DLRip, HDrip] (DUB, MVO) [ 749 MB ] Ужастики 2: Беспокойный Хэллоуин / Goosebumps 2: Haunted Halloween [2018 HDRip] DUB [] bober100 Скачать
1 | 0
Фильмы 2018 [DVDrip, WEB-DLRip, HDrip] (DUB, MVO) [ 1.46 GB ] Ужастики 2: Беспокойный Хэллоуин / Goosebumps 2: Haunted Halloween [2018 BDRip] DUB [ BD EUR] bober100 Скачать
1 | 0
Ultra HD (UHD: 2K, 4K, 8K) — видео сверхвысокой чёткости [ 43.93 GB ] Ужастики 2: Беспокойный Хэллоуин / Goosebumps 2: Haunted Halloween [2018 UHD BDRemux 2160p] DUB [] bober100 Скачать
1 | 0
Фильмы (Blu-ray, BD-Remux, HDDVD) [ 17.36 GB ] Ужастики 2: Беспокойный Хэллоуин / Goosebumps 2: Haunted Halloween [2018 BD Remux 1080p] DUB [] bober100 Скачать
2 | 0
Фильмы 2018 [DVDrip, WEB-DLRip, HDrip] (DUB, MVO) [ 1.84 GB ] Ужастики 2: Беспокойный Хэллоуин / Goosebumps 2: Haunted Halloween [2018 BDRip-AVC] DUB +DUB [] bober100 Скачать
1 | 0
Фильмы [HD 720p, 1080p] (Хороший звук DUB, MVO) [ 4.27 GB ] Ужастики 2: Беспокойный Хэллоуин / Goosebumps 2: Haunted Halloween [2018 BDRip 720p] DUB [] bober100 Скачать
1 | 0

28-11-2019 20:33  

Отключить всю рекламу на сайте

    Дорогой пользователь! Огромная просьба, поблагодарите релизера, оцените раздачу и оставьте свои комментарий, если Вы скачали Ужастики через торрент бесплатно! Внесите свою лепту в развитие PiratBit!
    Комментировать посты могут только пользователи прошедшие не сложную регистрацию
    Показать сообщения:    

    Ужастики через торрент
    Скачать бесплатно Ужастики
    Ужастики скачать торрент
    Ужастики смотреть онлайн
    Cкачать фильм Ужастики бесплатно
    Ужастики скачать торрент в хорошем качестве
    Ужастики смотреть онлайн бесплатно в хорошем качестве


    Вы не можете начинать темы
    Вы не можете отвечать на сообщения
    Вы не можете редактировать свои сообщения
    Вы не можете удалять свои сообщения
    Вы не можете голосовать в опросах
    Вы не можете прикреплять файлы к сообщениям
    Вы можете скачивать файлы