новый адрес пиратбит piratbit
Мега распродажа FORZA HORIZON 4 ULTIMATE+ВСЕ DLC+ОНЛАЙН всего за 499р. 349 руб. (супер цена). Внимание количество ограничено!!!

iTunes

1+1

iTunes

мы

iTunes

1

iTunes

Чернобыль

iTunes

Ральф против интернета

Лицензия

ПШазам

Лицензия

Игра престолов

Лицензия

30
pack

ВАЖНО

!!Акция!!

Alien_RageХит недели

RePack

Resident Evil 21

ИГРА 18+

pack

RePack

Metro:Exodus

!!Акция!!

Alien_Rage

RePack

fifa19

RePack

Assassins Creed: Odyssey

RePack

NEED FOR SPEED™ PAYBACK

3 сезон

9 сезон

Бесстыжие 9 сезон

Все сериалы

все сериалы на PB.wtf

RePack

FAR CRY 5
Ребята, катастрофически не хватает 1900р. для оплаты серверов за Октябрь (всвязи с блокировками трафик упал в 3 раза), 1-2р., выручайте.
  

На всякого мудреца довольно простоты (Анатолий Дорменко, Владимир Сухобоков) [2007, СССР, драма, DVDRip от AVP Studio] pb.wtf

На всякого мудреца довольно простоты через торрент pb.wtf

Размер: 2.18 GB | Добавлен: 3 года 10 мес. назад | Торрент скачан:19 раз
Скачать  

13-01-2016 10:51 На всякого мудреца довольно простоты Скачать торрент  

На всякого мудреца довольно простоты
Страна: СССР
Производство: К/ст им.Горького

Жанр: драма
Год выпуска: 1952
Продолжительность: 02:49:32 (01:37:50 + 01:11:42)

Перевод: Не требуется
Cубтитры: нет
Оригинальная аудиодорожка: русский

Режиссер: Анатолий Дорменко, Владимир Сухобоков

В ролях:
Михаил Царёв, Евдокия Турчанинова, Владимир Владиславский, Елена Шатрова, Игорь Ильинский, Николай Рыжов, Надежда Борская, Элла Далматова, Иван Верейский, Иван Лагутин, Вера Пашенная, Валентина Орлова, Раиса Рейзен (Климова), Н. Синякова, Сергей Калабин, Владимир Вилль, Олег Федоровский...
Полный список актёров

Описание:
Фильм-cпектакль Государственного Академического Малого театра по одноименной пьесе Александра Николаевича Островского.
Молодой человек из небогатой семьи Егор Дмитриевич Глумов, побуждаемый честолюбием, хочет сделать карьеру. Он ловко льстит, лицемерит, угодничает, умело пользуясь слабостями своих покровителей, а втайне высмеивает их тупость и пошлость в своем дневнике. Постепенно Глумов втирается в доверие к своему богатому родственнику Нилу Федосеевичу Мамаеву и его жене Клеопатре Львовне. Мамаевы знакомят Глумова с влиятельными людьми Крутицким и Городулиным. Легко завоевав их расположение, Глумов попадает в дом богатой московской барыни Турусиной в качестве претендента на руку ее племянницы. Он готов пойти на все, чтобы ускорить эту выгодную свадьбу...

Источник: DVD9 R5
Качество видео: DVDRip
Формат видео: AVI

Видео: 688x512 (4:3), 25 fps, XviD ~ 1636 kbps avg, 0.186 bit/pixel
Аудио: 48 kHz, Dolby Digital AC3 2.0, 192 kbps

Раздача от:
Общее
Полное имя : Na.vsyakogo.mudreca.dovolno.prostoty.1952.DVDRip_[New-team]_by_AVP_Studio\01.avi
Формат : AVI
Формат/Информация : Audio Video Interleave
Размер файла : 1,26 Гбайт
Продолжительность : 1 ч. 37 м.
Общий поток : 1838 Кбит/сек
Программа кодирования : VirtualDubMod 1.5.10.3 | www.virtualdub-fr.org || (build 2550/release)
Библиотека кодирования : VirtualDubMod build 2550/release

Видео
Идентификатор : 0
Формат : MPEG-4 Visual
Профиль формата : Advanced Simple@L5
Параметр BVOP формата : 1
Параметр QPel формата : Нет
Параметр GMC формата : Без точки перехода
Параметр матрицы формата : Выборочная
Идентификатор кодека : XVID
Идентификатор кодека/Подсказка : XviD
Продолжительность : 1 ч. 37 м.
Битрейт : 1636 Кбит/сек
Ширина : 688 пикселей
Высота : 512 пикселей
Соотношение сторон : 4:3
Частота кадров : 25,000 кадров/сек
Цветовое пространство : YUV
Субдискретизация насыщенности : 4:2:0
Битовая глубина : 8 бит
Тип развёртки : Прогрессивная
Метод сжатия : С потерями
Бит/(Пиксели*Кадры) : 0.186
Размер потока : 1,12 Гбайт (89%)
Библиотека кодирования : XviD 1.2.1 (UTC 2008-12-04)

Аудио
Идентификатор : 1
Формат : AC-3
Формат/Информация : Audio Coding 3
Расширение режима : CM (complete main)
Параметр Endianness формата : Big
Идентификатор кодека : 2000
Продолжительность : 1 ч. 37 м.
Вид битрейта : Постоянный
Битрейт : 192 Кбит/сек
Каналы : 2 канала
Расположение каналов : Front: L R
Частота : 48,0 КГц
Частота кадров : 31,250 кадров/сек (1536 spf)
Метод сжатия : С потерями
Размер потока : 134 Мбайт (10%)
Выравнивание : Разделение по промежуткам
Продолжительность промежутка : 40 мс. (1,00 видеокадр)
Время предзагрузки промежутка : 500 мс
pb.wtf



Скачать На всякого мудреца довольно простоты через торрент http://s019.radikal.ru/i606/1601/b9/582aeed87333.png Скачать фильм На всякого мудреца довольно простоты через торрент бесплантно в хорошем качестве Описание:Фильм-cпектакль Государственного Академического Малого театра по одноименной пьесе Александра Николаевича Островского.Молодой ... 5 10 1
Info! Золотая раздача, скачанное не засчитывается.
Торрент: Зарегистрирован [2016-01-13 10:51] · скачан: 19 раз
Статус: √ проверено
Размер: 2.18 GB
Как cкачать? Как скачать На всякого мудреца довольно простоты через торрент | qTorrent

% Раздел Тема Автор DL S | L
Кино СССР [ 2.18 GB ] На всякого мудреца довольно простоты [2007 СССР DVDRip-AVC от AVP Studio] AVP Studio Скачать
1 | 0
Кино СССР [ 1.46 GB ] На всякого мудреца довольно простоты [2007 СССР DVDRip от AVP Studio] AVP Studio Скачать
1 | 0


>> Регистрируемся здесь <<






Отзывы и комментарии о схеме читаем и пишем здесь: ---> Отзывы и комментарии о схеме

Новые благодарочки в телеграм довольных пользователей:
скриншот   скриншот   скриншот   скриншот   скриншот
    Дорогой пользователь! Огромная просьба, поблагодарите релизера, оцените раздачу и оставьте свои комментарий, если Вы скачали На всякого мудреца довольно простоты через торрент бесплатно! Внесите свою лепту в развитие PiratBit!
    Комментировать посты могут только пользователи прошедшие не сложную регистрацию
    Показать сообщения:    

    На всякого мудреца довольно простоты через торрент
    Скачать бесплатно На всякого мудреца довольно простоты
    На всякого мудреца довольно простоты скачать торрент
    На всякого мудреца довольно простоты смотреть онлайн
    Cкачать фильм На всякого мудреца довольно простоты бесплатно
    На всякого мудреца довольно простоты скачать торрент в хорошем качестве
    На всякого мудреца довольно простоты смотреть онлайн бесплатно в хорошем качестве


    Вы не можете начинать темы
    Вы не можете отвечать на сообщения
    Вы не можете редактировать свои сообщения
    Вы не можете удалять свои сообщения
    Вы не можете голосовать в опросах
    Вы не можете прикреплять файлы к сообщениям
    Вы можете скачивать файлы