новый адрес пиратбит piratbit
Мега распродажа FORZA HORIZON 4 ULTIMATE+ВСЕ DLC+ОНЛАЙН всего за 499р. 349 руб. (супер цена). Внимание количество ограничено!!!

iTunes

1+1

iTunes

мы

iTunes

1

iTunes

Чернобыль

iTunes

Ральф против интернета

Лицензия

ПШазам

Лицензия

Игра престолов

Лицензия

30
pack

ВАЖНО

!!Акция!!

Alien_RageХит недели

RePack

Resident Evil 21

ИГРА 18+

pack

RePack

Metro:Exodus

!!Акция!!

Alien_Rage

RePack

fifa19

RePack

Assassins Creed: Odyssey

RePack

NEED FOR SPEED™ PAYBACK

3 сезон

9 сезон

Бесстыжие 9 сезон

Все сериалы

все сериалы на PB.wtf

RePack

FAR CRY 5
Ребята, катастрофически не хватает 1900р. для оплаты серверов за Октябрь (всвязи с блокировками трафик упал в 3 раза), 1-2р., выручайте.
  

На всякого мудреца довольно простоты (Анатолий Дорменко, Владимир Сухобоков) [2007, СССР, драма, DVDRip-AVC от AVP Studio] pb.wtf

На всякого мудреца довольно простоты через торрент pb.wtf

Размер: 2.18 GB | Добавлен: 3 года 10 мес. назад | Торрент скачан:21 раз
Скачать  

13-01-2016 10:53 На всякого мудреца довольно простоты Скачать торрент  

На всякого мудреца довольно простоты
Страна: СССР
Производство: К/ст им.Горького

Жанр: драма
Год выпуска: 1952
Продолжительность: 02:49:32 (01:37:50 + 01:11:42)

Перевод: Не требуется
Cубтитры: нет
Оригинальная аудиодорожка: русский

Режиссер: Анатолий Дорменко, Владимир Сухобоков

В ролях:
Михаил Царёв, Евдокия Турчанинова, Владимир Владиславский, Елена Шатрова, Игорь Ильинский, Николай Рыжов, Надежда Борская, Элла Далматова, Иван Верейский, Иван Лагутин, Вера Пашенная, Валентина Орлова, Раиса Рейзен (Климова), Н. Синякова, Сергей Калабин, Владимир Вилль, Олег Федоровский...
Полный список актёров

Описание:
Фильм-cпектакль Государственного Академического Малого театра по одноименной пьесе Александра Николаевича Островского.
Молодой человек из небогатой семьи Егор Дмитриевич Глумов, побуждаемый честолюбием, хочет сделать карьеру. Он ловко льстит, лицемерит, угодничает, умело пользуясь слабостями своих покровителей, а втайне высмеивает их тупость и пошлость в своем дневнике. Постепенно Глумов втирается в доверие к своему богатому родственнику Нилу Федосеевичу Мамаеву и его жене Клеопатре Львовне. Мамаевы знакомят Глумова с влиятельными людьми Крутицким и Городулиным. Легко завоевав их расположение, Глумов попадает в дом богатой московской барыни Турусиной в качестве претендента на руку ее племянницы. Он готов пойти на все, чтобы ускорить эту выгодную свадьбу...

Источник: DVD9 R5
Качество видео: DVDRip-AVC
Формат видео: MKV

Видео: 696->762x572 (4:3), 25 fps, H264 ~ 1645 kbps avg, 0.165 bit/pixel
Аудио: 48 kHz, Dolby Digital AC3 2.0, 192 kbps

Раздача от:
Общее
Полное имя : Na.vsyakogo.mudreca.dovolno.prostoty.1952.DVDRip-AVC_[New-team]_by_AVP_Studio\01.mkv
Формат : Matroska
Версия формата : Version 2
Размер файла : 1,26 Гбайт
Продолжительность : 1 ч. 37 м.
Общий поток : 1839 Кбит/сек
Дата кодирования : UTC 2016-01-12 19:09:57
Программа кодирования : mkvmerge v6.1.0 ('Old Devil') built on Mar 4 2013 09:10:42
Библиотека кодирования : libebml v1.3.0 + libmatroska v1.4.0

Видео
Идентификатор : 1
Формат : AVC
Формат/Информация : Advanced Video Codec
Профиль формата : High@L4.1
Параметр CABAC формата : Да
Параметр ReFrames формата : 10 кадров
Идентификатор кодека : V_MPEG4/ISO/AVC
Продолжительность : 1 ч. 37 м.
Битрейт : 1645 Кбит/сек
Ширина : 696 пикселей
Высота : 572 пикселя
Соотношение сторон : 4:3
Режим частоты кадров : Постоянный
Частота кадров : 25,000 кадров/сек
Цветовое пространство : YUV
Субдискретизация насыщенности : 4:2:0
Битовая глубина : 8 бит
Тип развёртки : Прогрессивная
Бит/(Пиксели*Кадры) : 0.165
Размер потока : 1,10 Гбайт (88%)
Библиотека кодирования : x264 core 130 r2273 b3065e6
Настройки программы : cabac=1 / ref=10 / deblock=1:-2:-1 / analyse=0x3:0x113 / me=umh / subme=10 / psy=1 / psy_rd=1.00:0.00 / mixed_ref=1 / me_range=32 / chroma_me=1 / trellis=2 / 8x8dct=1 / cqm=0 / deadzone=21,11 / fast_pskip=1 / chroma_qp_offset=-2 / threads=6 / lookahead_threads=1 / sliced_threads=0 / nr=0 / decimate=0 / interlaced=0 / bluray_compat=0 / constrained_intra=0 / bframes=8 / b_pyramid=2 / b_adapt=2 / b_bias=0 / direct=3 / weightb=1 / open_gop=0 / weightp=2 / keyint=250 / keyint_min=25 / scenecut=40 / intra_refresh=0 / rc=2pass / mbtree=0 / bitrate=1645 / ratetol=1.0 / qcomp=0.60 / qpmin=0 / qpmax=69 / qpstep=4 / cplxblur=20.0 / qblur=0.5 / ip_ratio=1.40 / pb_ratio=1.30 / aq=1:1.00
Default : Да
Forced : Нет

Аудио
Идентификатор : 2
Формат : AC-3
Формат/Информация : Audio Coding 3
Расширение режима : CM (complete main)
Параметр Endianness формата : Big
Идентификатор кодека : A_AC3
Продолжительность : 1 ч. 37 м.
Вид битрейта : Постоянный
Битрейт : 192 Кбит/сек
Каналы : 2 канала
Расположение каналов : Front: L R
Частота : 48,0 КГц
Частота кадров : 31,250 кадров/сек (1536 spf)
Метод сжатия : С потерями
Размер потока : 134 Мбайт (10%)
Default : Да
Forced : Нет
pb.wtf



Скачать На всякого мудреца довольно простоты через торрент http://s019.radikal.ru/i606/1601/b9/582aeed87333.png Скачать фильм На всякого мудреца довольно простоты через торрент бесплантно в хорошем качестве Описание:Фильм-cпектакль Государственного Академического Малого театра по одноименной пьесе Александра Николаевича Островского.Молодой ... 5 10 1
Info! Золотая раздача, скачанное не засчитывается.
Торрент: Зарегистрирован [2016-01-13 10:53] · скачан: 21 раз
Статус: √ проверено
Размер: 2.18 GB
Как cкачать? Как скачать На всякого мудреца довольно простоты через торрент | qTorrent

% Раздел Тема Автор DL S | L
Кино СССР [ 1.46 GB ] На всякого мудреца довольно простоты [2007 СССР DVDRip от AVP Studio] AVP Studio Скачать
1 | 0
Кино СССР [ 2.18 GB ] На всякого мудреца довольно простоты [2007 СССР DVDRip от AVP Studio] AVP Studio Скачать
1 | 0


>> Регистрируемся здесь <<






Отзывы и комментарии о схеме читаем и пишем здесь: ---> Отзывы и комментарии о схеме

Новые благодарочки в телеграм довольных пользователей:
скриншот   скриншот   скриншот   скриншот   скриншот
    Дорогой пользователь! Огромная просьба, поблагодарите релизера, оцените раздачу и оставьте свои комментарий, если Вы скачали На всякого мудреца довольно простоты через торрент бесплатно! Внесите свою лепту в развитие PiratBit!
    Комментировать посты могут только пользователи прошедшие не сложную регистрацию
    Показать сообщения:    

    На всякого мудреца довольно простоты через торрент
    Скачать бесплатно На всякого мудреца довольно простоты
    На всякого мудреца довольно простоты скачать торрент
    На всякого мудреца довольно простоты смотреть онлайн
    Cкачать фильм На всякого мудреца довольно простоты бесплатно
    На всякого мудреца довольно простоты скачать торрент в хорошем качестве
    На всякого мудреца довольно простоты смотреть онлайн бесплатно в хорошем качестве


    Вы не можете начинать темы
    Вы не можете отвечать на сообщения
    Вы не можете редактировать свои сообщения
    Вы не можете удалять свои сообщения
    Вы не можете голосовать в опросах
    Вы не можете прикреплять файлы к сообщениям
    Вы можете скачивать файлы