Всегда рабочее зеркало просто перед .vidak.icu напиши любое слово или цифру, Пример http://p7m.vidak.icu

>

7.4

iTunes

7.4

2 сезон

9.4

1 сезон

1

7.4

2 сезон

7.2

iTunes

6.0

MVO

13

6.1

iTunes

8.3

Пиратка

30

ULTIMATE

pack

9.9

Лицензия

ВАЖНО

ИГРА 18+

pack

7.3

RePack

MK11

7.7

RePack

jed

7.8

RePack

fifa19

8.5

RePack

RDR2

RePack

NEED FOR SPEED™ PAYBACK

1 сезон

9 сезон

Бесстыжие 9 сезон

Все сериалы

все сериалы на PB.wtf

RePack

FAR CRY 5

Anonymous, доброй ночи, мы катастрофически не успеваем собрать деньги на оплату серверов, помогите нам пожалуйста 5,10,15р., для нас важна любая помощь . В качестве благодарности мы отключим Вам всю рекламу на сайте (укажите свой ник в строку Ваше имя)!

×
  
Magnet ссылка

Равнины Меркурия / Mercury Plains (Чарльз Бурмейстер) [2016, боевик, драма, приключения, DVDRip, Любительский одноголосый [datynet] (без рекламы) pb.wtf

Равнины Меркурия через торрент pb.wtf

Размер: 1.18 GB | Добавлен: 6 лет назад | Торрент скачан:182 раза
Смотреть онлайн Равнины Меркурия | Скачать    Ребята, помогите собрать деньги на оплату серверов!!!

13-01-2016 11:16 Равнины Меркурия Скачать торрент  


Равнины Меркурия / Mercury Plains


ИНФОРМАЦИЯ:
Год выпуска:2016
Страна: США
Жанр: боевик, драма, приключения
Продолжительность: 01:42:06
Перевод: Любительский одноголосый [datynet]
Режиссер: Чарльз Бурмейстер

В Ролях:


Скотт Иствуд (Mitch Davis), Анджела Сарафян (Alyssa), Ник Чинланд (The Captain), Хорхе А. Хименес (Camarillo), Кэтерин Уиллис (Mitch's Mom), Сью Рок (Mother), Майк Гассэвей (Father), Кит Поулсон (Naylor), Марк Хэнсон (Ron), Джастин Арнольд (Paul), Карина Джанкер (Tatiana Gomez), Рис Риос (The Gangster)

Описание:
Столкнувшись с мрачным будущим, молодой человек сбегает в Мексику. Там он оказывается вовлечен в военизированную группу подростков, которые борются с картелями.


ТЕХ.ДАННЫЕ:
Качество: DVDRip
Формат: AVI
Видео: XviD, 720x304 (2.35:1), 1393 kbps, 23,976 fps, 0,266 bpp
Аудио: MP3 / 2.0 / 48 kHz / 192 kbps /


General
Complete name : D:\Торенты\Mercury.Plains.2016.DVDRip.avi
Format : AVI
Format/Info : Audio Video Interleave
File size : 1.18 GiB
Duration : 1h 42mn
Overall bit rate : 1 660 Kbps
Writing library : VirtualDub build 35576/release

Video
ID : 0
Format : MPEG-4 Visual
Format profile : Advanced Simple@L5
Format settings, BVOP : 2
Format settings, QPel : No
Format settings, GMC : No warppoints
Format settings, Matrix : Default (H.263)
Muxing mode : Packed bitstream
Codec ID : XVID
Codec ID/Hint : XviD
Duration : 1h 42mn
Bit rate : 1 394 Kbps
Width : 720 pixels
Height : 304 pixels
Display aspect ratio : 2.35:1
Frame rate : 23.976 fps
Color space : YUV
Chroma subsampling : 4:2:0
Bit depth : 8 bits
Scan type : Progressive
Compression mode : Lossy
Bits/(Pixel*Frame) : 0.266
Stream size : 1 018 MiB (84%)
Writing library : XviD 66

Audio
ID : 1
Format : MPEG Audio
Format version : Version 1
Format profile : Layer 3
Mode : Joint stereo
Codec ID : 55
Codec ID/Hint : MP3
Duration : 1h 42mn
Bit rate mode : Constant
Bit rate : 192 Kbps
Channel(s) : 2 channels
Sampling rate : 48.0 KHz
Compression mode : Lossy
Stream size : 140 MiB (12%)
Alignment : Split accross interleaves
Скриншоты:

© Оформление by .::Ворон::.
pb.wtf



Скачать Равнины Меркурия через торрент https://pic1.kartinco.top/images/61/ordi9.jpg Скачать, смотреть онлайн Равнины Меркурия бесплантно в хорошем качестве Описание: Столкнувшись с мрачным будущим, молодой человек сбегает в Мексику. Там он оказывается вовлечен в военизированную группу ... 9.9 10 16
Торрент: Зарегистрирован [2016-01-13 11:16] · скачан: 182 раз
Статус: T временная
Размер: 1.18 GB
Как cкачать? Как скачать Равнины Меркурия через торрент | UTorrent

% Раздел Тема Автор DL S | L
T Фильмы 2016 [DVDrip, WEB-DLRip, HDrip] (DUB, MVO) [ 1.46 GB ] Равнины Меркурия / Mercury Plains [2016 HDRip] MVO [Paradox & Omskbird records] bober100 Скачать
1 | 0
T Фильмы без перевода [ 7.63 GB ] Равнины Меркурия / Mercury Plains [2016 BDRip 1080p] [Оригинал] smaster Скачать
1 | 0
T Фильмы 2016 [DVDrip, WEB-DLRip, HDrip] (DUB, MVO) [ 1.37 GB ] Равнины Меркурия / Mercury Plains [2016 DVDRip Любительский многоголосый Ворон Скачать
1 | 0
T Фильмы без перевода [ 4.35 GB ] Равнины Меркурия / Mercury Plains [2016 BDRip 720p [Оригинал] smaster Скачать
1 | 0
Фильмы без перевода [ 1.38 GB ] Равнины Меркурия / Mercury Plains [2016 DVDRip Перевод отсутствует Оригинал] makarevich Скачать
1 | 0

28-11-2019 20:33  

Отключить всю рекламу на сайте

    Дорогой пользователь! Огромная просьба, поблагодарите релизера, оцените раздачу и оставьте свои комментарий, если Вы скачали Равнины Меркурия через торрент бесплатно!
    Комментировать посты могут только пользователи прошедшие не сложную регистрацию
    Показать сообщения:    

    Равнины Меркурия через торрент
    Скачать бесплатно Равнины Меркурия
    Равнины Меркурия скачать торрент
    Равнины Меркурия смотреть онлайн
    Cкачать фильм Равнины Меркурия бесплатно
    Равнины Меркурия скачать торрент в хорошем качестве
    Равнины Меркурия смотреть онлайн бесплатно в хорошем качестве


    Вы не можете начинать темы
    Вы не можете отвечать на сообщения
    Вы не можете редактировать свои сообщения
    Вы не можете удалять свои сообщения
    Вы не можете голосовать в опросах
    Вы не можете прикреплять файлы к сообщениям
    Вы можете скачивать файлы