Ссылка на приватное зеркало всего за 1$. Внимание количество ограничено!!!

OK

1+1

iTunes

мы

OK

1

WEB-DLRip

Джокер

Пифагор

Ведьмак / The Witcher сериал

iTunes

ПШазам

ОК

Оно 2

iTunes

30
pack

Вам бонус

ВАЖНО

!!Акция!!

Alien_RageХит недели

RePack

Resident Evil 21

ИГРА 18+

pack

RePack

jed

RePack

fifa19

RePack

Assassins Creed: Odyssey

RePack

NEED FOR SPEED™ PAYBACK

4 сезон

9 сезон

Бесстыжие 9 сезон

Все сериалы

все сериалы на PB.wtf

RePack

FAR CRY 5
  

Последний охотник на ведьм / The Last Witch Hunter (Брек Эйснер) [2015, Фэнтези, боевик, приключения, WEB DLRip-AVC] [iTunes] pb.wtf

Последний охотник на ведьм через торрент pb.wtf

Размер: 2.05 GB | Добавлен: 4 года назад | Торрент скачан:1582 раза
Скачать  

14-01-2016 05:46 Последний охотник на ведьм Скачать торрент  

The Last Witch Hunter
Год выпуска » 2015
Страна » США, Китай, Канада
Жанр » Фэнтези, боевик, приключения
Продолжительность » 01:46:26
Перевод » Дублированный • iTunes
Субтитры » Нет

В ролях
» Вин Дизель, Роуз Лесли, Элайджа Вуд, Оулавюр Дарри Оулафссон, Рина Оуэн, Юли Энгельбрехт, Майкл Кейн, Джозеф Гилган, Исаак Де Банколе, Майкл Халсли

Режиссёр
» Брек Эйснер
ОПИСАНИЕ:
» Современный мир скрывает множество секретов, но самым удивительным из них является то, что ведьмы до сих пор живут среди нас. Это злобные сверхъестественные существа, чья цель — наслать на мир смертоносную чуму. Армии охотников на ведьм сражались с ними на протяжении многих веков.
В наши дни остался всего лишь один охотник на ведьм, Колдер, которому однажды удалось убить всемогущую королеву ведьм. Но Колдер еще не знает, что королева воскресла и жаждет отомстить своему убийце…

• Качество » WEB DLRip-AVC
• Формат » MKV
• Видео кодек » AVC
• Аудио кодек » AC3
• Видео » AVC at 2 374 kb/s, 1024x576 at 24.000 fps
• Аудио » Русский (AC-3 / 6 ch / 384 kbps /16 bit )



Автор рипа » • Dimmon
Уникальный идентификатор : 229728124373841416258079991569751620843 (0xACD407025F54451C839C2F1C13DA3CEB)
Полное имя : The.Last.Witch.Hunter.2015.D.WEB-DLRip AVC.mkv
Формат : Matroska
Версия формата : Version 2
Размер файла : 2,05 Гбайт
Продолжительность : 1 ч. 46 м.
Общий поток : 2759 Кбит/сек
Дата кодирования : UTC 2016-01-12 15:54:57
Программа кодирования : mkvmerge v7.8.0 ('River Man') 32bit built on Apr 3 2015 12:11:22
Библиотека кодирования : libebml v1.3.1 + libmatroska v1.4.2

Видео
Идентификатор : 1
Формат : AVC
Формат/Информация : Advanced Video Codec
Профиль формата : High@L4.1
Параметр CABAC формата : Да
Параметр ReFrames формата : 8 кадров
Идентификатор кодека : V_MPEG4/ISO/AVC
Продолжительность : 1 ч. 46 м.
Битрейт : 2374 Кбит/сек
Ширина : 1024 пикселя
Высота : 576 пикселей
Соотношение сторон : 16:9
Режим частоты кадров : Постоянный
Частота кадров : 24,000 кадра/сек
Цветовое пространство : YUV
Субдискретизация насыщенности : 4:2:0
Битовая глубина : 8 бит
Тип развёртки : Прогрессивная
Бит/(Пиксели*Кадры) : 0.168
Размер потока : 1,73 Гбайт (84%)
Библиотека кодирования : x264 core 146 r2538 121396c
Настройки программы : cabac=1 / ref=8 / deblock=1:-2:-2 / analyse=0x3:0x113 / me=umh / subme=11 / psy=1 / psy_rd=1.00:0.20 / mixed_ref=1 / me_range=32 / chroma_me=1 / trellis=2 / 8x8dct=1 / cqm=0 / deadzone=21,11 / fast_pskip=0 / chroma_qp_offset=-3 / threads=6 / lookahead_threads=1 / sliced_threads=0 / nr=0 / decimate=0 / interlaced=0 / bluray_compat=0 / constrained_intra=0 / bframes=3 / b_pyramid=2 / b_adapt=2 / b_bias=0 / direct=3 / weightb=1 / open_gop=0 / weightp=2 / keyint=240 / keyint_min=24 / scenecut=40 / intra_refresh=0 / rc_lookahead=60 / rc=2pass / mbtree=1 / bitrate=2374 / ratetol=1.0 / qcomp=0.60 / qpmin=0 / qpmax=69 / qpstep=4 / cplxblur=20.0 / qblur=0.5 / ip_ratio=1.40 / aq=1:1.00
Default : Да
Forced : Нет

Аудио
Идентификатор : 2
Формат : AC-3
Формат/Информация : Audio Coding 3
Расширение режима : CM (complete main)
Параметр Endianness формата : Big
Идентификатор кодека : A_AC3
Продолжительность : 1 ч. 46 м.
Вид битрейта : Постоянный
Битрейт : 384 Кбит/сек
Каналы : 6 каналов
Расположение каналов : Front: L C R, Side: L R, LFE
Частота : 48,0 КГц
Частота кадров : 31,250 кадров/сек (1536 spf)
Метод сжатия : С потерями
Размер потока : 292 Мбайт (14%)
Default : Да
Forced : Нет
скриншот   скриншот   скриншот   скриншот   скриншот   скриншот  
pb.wtf



Скачать Последний охотник на ведьм через торрент http://pic1.kartinco.top/images/10/iiild.jpg Скачать фильм Последний охотник на ведьм через торрент бесплантно в хорошем качестве ОПИСАНИЕ: » Современный мир скрывает множество секретов, но самым удивительным из них является то, что ведьмы до сих пор живут среди нас. ... 9.6 10 28
Info! Золотая раздача, скачанное не засчитывается.
Торрент: Зарегистрирован [2016-01-14 05:46] · скачан: 1 582 раз
Статус: √ проверено
Размер: 2.05 GB
Как cкачать? Как скачать Последний охотник на ведьм через торрент | qTorrent

% Раздел Тема Автор DL S | L
Ultra HD (UHD: 2K, 4K, 8K) — видео сверхвысокой чёткости [ 56.18 GB ] Последний охотник на ведьм / The Last Witch Hunter [2015 UHD BDRemux 2160p] DUB [] + AVO [Дольский] sheker187 Скачать
1 | 0
T Релизы по Парсеру [Игры, Сериалы и Фильмы и другое...] [ 38.38 GB ] Последний охотник на ведьм / The Last Witch Hunter [2015 UHDVCRip-HEVC 2160p] SEVMASH Скачать
1 | 0
Ultra HD (UHD: 2K, 4K, 8K) — видео сверхвысокой чёткости [ 49.25 GB ] Последний охотник на ведьм / The Last Witch Hunter [2015 UHD WEBRip 2160p] [USA Transfer] DUB [] bober100 Скачать
1 | 0
Фильмы с авторской озвучкой [ 1.46 GB ] Последний охотник на ведьм / The Last Witch Hunter [2015 BDRip] [AVO] killermax2013 Скачать
3 | 0
Фильмы (HD 720p, 1080p) (48-60 fps) [ 4.96 GB ] Последний охотник на ведьм / The Last Witch Hunter [2015 BDRip 720p 60fps от еnvy / NNNB] DUB еnvy Скачать
23 | 1
Фильмы (HD 720p, 1080p) (48-60 fps) [ 9.63 GB ] Последний охотник на ведьм / The Last Witch Hunter [2015 BDRip 720p by mimok 60fps mimok Скачать
2 | 0
Фильмы 2015 [DVDrip, WEB-DLRip, HDrip] [ 2.17 GB ] Последний охотник на ведьм / The Last Witch Hunter [2015 Китай BDRip-AVC от sokol_ok] DUB sokol_ok Скачать
2 | 0


Последний раз редактировалось: $-DRON-$ (2016-01-15 18:43), всего редактировалось 1 раз

28-11-2019 20:33  

Отключить всю рекламу на сайте

14-01-2016 05:50 Последний охотник на ведьм Скачать торрент  

«Последний охотник на ведьм» — это пример того, как все пули, выпущенные создателями, ушли в «молоко». Вин Дизель хотел дистанцироваться от «Форсажа»? Ничего не вышло, он не потрудился сменить облик и забыл расстаться с автомобилями. Вин Дизель — абсолютно типичный, от которого уже давно начали уставать мы. Хотелось бы верить, что создатели фильма правильно воспримут слово «последний» и не станут плодить франшизу; хотя финал сделали таким открытым явно как задел для сиквела.
4/10
Когда ведьма сказала, что он теперь не умрет никогда я понял как он выживал в 7 частях форсажа)))
pb.wtf



15-01-2016 10:48 Последний охотник на ведьм Скачать торрент  

Рейтинг завышен...я бы дал 3 из 10...Ожидал большего..выключил через 40 мин pb.wtf



15-01-2016 20:05 Последний охотник на ведьм Скачать торрент  

Мне понравился, на разок конечно и спецэффекты не плохо сделаны. Любителям жанра фэнтази, так сказать.
Спасибо за раздачу!pb.wtf



16-01-2016 07:52 Последний охотник на ведьм Скачать торрент  

SEVER8609 писал(а):

Мне понравился, на разок конечно и спецэффекты не плохо сделаны. Любителям жанра фэнтази, так сказать.
Спасибо за раздачу!

Согласен с Вами!pb.wtf



18-01-2016 12:19 Последний охотник на ведьм Скачать торрент  

Как качествоpb.wtf



20-02-2016 12:29 Последний охотник на ведьм Скачать торрент  

Шикарный фильм! Давно не видел такого качественного фэнтези. Рекомендую к просмотру, Вин Дизель как всегда на высоте.pb.wtf



27-03-2016 16:45 Последний охотник на ведьм Скачать торрент  

Severynin322 писал(а):

Шикарный фильм! Давно не видел такого качественного фэнтези. Рекомендую к просмотру, Вин Дизель как всегда на высоте.

Полностью согласен!pb.wtf



    Дорогой пользователь! Огромная просьба, поблагодарите релизера, оцените раздачу и оставьте свои комментарий, если Вы скачали Последний охотник на ведьм через торрент бесплатно! Внесите свою лепту в развитие PiratBit!
    Комментировать посты могут только пользователи прошедшие не сложную регистрацию
    Показать сообщения:    

    Последний охотник на ведьм через торрент
    Скачать бесплатно Последний охотник на ведьм
    Последний охотник на ведьм скачать торрент
    Последний охотник на ведьм смотреть онлайн
    Cкачать фильм Последний охотник на ведьм бесплатно
    Последний охотник на ведьм скачать торрент в хорошем качестве
    Последний охотник на ведьм смотреть онлайн бесплатно в хорошем качестве


    Вы не можете начинать темы
    Вы не можете отвечать на сообщения
    Вы не можете редактировать свои сообщения
    Вы не можете удалять свои сообщения
    Вы не можете голосовать в опросах
    Вы не можете прикреплять файлы к сообщениям
    Вы можете скачивать файлы