Ссылка на приватное зеркало нашего сайта всего за 1$. Внимание количество ограничено!!!

2 сезон

iTunes

1 сезон

1

2 сезон

2 сезон

iTunes

1 сезон

RePack

30

Ultimate

ВАЖНО

ИГРА 18+

pack

RePack

MK11
pack

Забери бонус

RePack

jed

!!Акция!!

Alien_Rage

RePack

fifa19

RePack

Assassins Creed: Odyssey

RePack

NEED FOR SPEED™ PAYBACK

4 сезон

9 сезон

Бесстыжие 9 сезон

Все сериалы

все сериалы на PB.wtf

RePack

FAR CRY 5
  

Шпион из Лондона / London Spy / Сезон: 1 / Серия 1-2 из 5 / (Якоб Вербрюгген) [2015 г., триллер, драма, мелодрама, криминал, WEB-DL 1080p] MVO BaibaKo pb.wtf

Шпион из Лондона через торрент pb.wtf

Размер: 4.89 GB | Добавлен: 4 года 10 мес. назад | Торрент скачан:6 раз
Скачать  

14-01-2016 06:15 Шпион из Лондона Скачать торрент  

Шпион из Лондона / London Spy




Год выпуска: 2015
Страна: Великобритания
Жанр: триллер, драма, мелодрама, криминал
Продолжительность: ~ 00:53:00 х 2
Перевод: Профессиональный (многоголосый, закадровый) BaibaKo
Реклама: В релизе присутствует реклама казино




Режиссер: Якоб Вербрюгген
Сценарий: Том Роб Смит
Продюссер: Тим Беван, Шарлотта Блоксэм, Эрик Феллнер
Оператор: Лори Роуз
Композитор: Кифес Чанция, Дэвид Холмс
Художник: Лиза Холл, Сион Кларк
Монтаж: Виктория Бойделл




Сезон : 1
Эпизод: 1-2 из 5




Премьера в мире: 9 ноября 2015









В ролях:

Джим Бродбент, Эдвард Холкрофт, Шарлотта Рэмплинг, Бен Уишоу, Зринка Цвитешич, Саманта Спиро, Ричард Каннингэм, Джозеф Алтин, Антония Кэмпбелл-Хьюджес




Описание: События разворачиваются вокруг случайной романтической встречи двух парней из совершенно разных слоев общества.. Один из них служит в Секретной разведывательной службе МИ-6, а другой полностью погружен в мир танца в юношеской клубной тусовке.. Общительный, веселый, романтичный и легкомысленный Дэнни влюбляется в загадочного и гениального психопата Алекса.. В тот момент, когда они оба понимают, что их отношения перерастают в настоящую любовь, Алекс внезапно исчезает.. Неопытный Дэнни бросается на поиски друга в запутанном мире британской разведки и встает перед дилеммой: готов ли он продолжать двигаться вперед в поисках истины..




Качество: WEB-DL 1080p
Формат: MKV
Видео кодек: AVC
Аудио кодек: AC3
Видео: AVC / 1916x1072 / 1.787 / 23.976fps / 4719 kbps
Аудио#2: Русский - AC3 / 48.0 KHz / 2 ch / 384 kbps
Аудио#3: Английский - AC3 / 48.0 KHz / 2 ch / 384 kbps
Субтитры: Нет






скриншот   скриншот   скриншот   скриншот   скриншот  
General
Unique ID : 238741715577259703455830165599380807974 (0xB39BFB5DD4266401827782A73EF3A126)
Complete name : D:\London.Spy.s01.HD1080p.WEB-DL.Rus.Eng\London.Spy.s01e01.HD1080p.WEB-DL.Rus.Eng.BaibaKo.tv.mkv
Format : Matroska
Format version : Version 4 / Version 2
File size : 2.45 GiB
Duration : 1h 2mn
Overall bit rate : 5 591 Kbps
Encoded date : UTC 2015-12-24 00:53:24
Writing application : mkvmerge v8.3.0 ('Over the Horizon') 64bit
Writing library : libebml v1.3.1 + libmatroska v1.4.2
DURATION : 01:02:41.152000000
NUMBER_OF_FRAMES : 117536
NUMBER_OF_BYTES : 180535296
_STATISTICS_WRITING_APP : mkvmerge v8.3.0 ('Over the Horizon') 64bit
_STATISTICS_WRITING_DATE_UTC : 2015-12-24 00:53:24
_STATISTICS_TAGS : BPS DURATION NUMBER_OF_FRAMES NUMBER_OF_BYTES

Video #1
ID : 1
Format : AVC
Format/Info : Advanced Video Codec
Format profile : High@L4
Format settings, CABAC : Yes
Format settings, ReFrames : 4 frames
Codec ID : V_MPEG4/ISO/AVC
Duration : 1h 2mn
Bit rate : 4 719 Kbps
Width : 1 916 pixels
Height : 1 072 pixels
Display aspect ratio : 16:9
Frame rate mode : Constant
Frame rate : 23.976 fps
Color space : YUV
Chroma subsampling : 4:2:0
Bit depth : 8 bits
Scan type : Progressive
Bits/(Pixel*Frame) : 0.096
Stream size : 2.06 GiB (84%)
Writing library : x264 core 142 r2479 dd79a61
Encoding settings : cabac=1 / ref=4 / deblock=1:0:0 / analyse=0x3:0x113 / me=hex / subme=7 / psy=1 / psy_rd=1.00:0.00 / mixed_ref=1 / me_range=16 / chroma_me=1 / trellis=1 / 8x8dct=1 / cqm=0 / deadzone=21,11 / fast_pskip=1 / chroma_qp_offset=-2 / threads=12 / lookahead_threads=2 / sliced_threads=0 / nr=0 / decimate=1 / interlaced=0 / bluray_compat=0 / constrained_intra=0 / bframes=3 / b_pyramid=2 / b_adapt=1 / b_bias=0 / direct=1 / weightb=1 / open_gop=0 / weightp=2 / keyint=240 / keyint_min=24 / scenecut=40 / intra_refresh=0 / rc_lookahead=40 / rc=2pass / mbtree=1 / bitrate=4719 / ratetol=1.0 / qcomp=0.60 / qpmin=0 / qpmax=69 / qpstep=4 / cplxblur=20.0 / qblur=0.5 / vbv_maxrate=25000 / vbv_bufsize=31250 / nal_hrd=none / filler=0 / ip_ratio=1.40 / aq=1:1.00
Default : No
Forced : No
Color range : Limited
Color primaries : BT.709
Transfer characteristics : BT.709
Matrix coefficients : BT.709

Audio #2
ID : 2
Format : AC-3
Format/Info : Audio Coding 3
Mode extension : CM (complete main)
Format settings, Endianness : Big
Codec ID : A_AC3
Duration : 1h 2mn
Bit rate mode : Constant
Bit rate : 384 Kbps
Channel(s) : 2 channels
Channel positions : Front: L R
Sampling rate : 48.0 KHz
Compression mode : Lossy
Stream size : 172 MiB (7%)
Language : Russian
Default : Yes
Forced : No

Audio #3
ID : 3
Format : AC-3
Format/Info : Audio Coding 3
Mode extension : CM (complete main)
Format settings, Endianness : Big
Codec ID : A_AC3
Duration : 1h 2mn
Bit rate mode : Constant
Bit rate : 384 Kbps
Channel(s) : 2 channels
Channel positions : Front: L R
Sampling rate : 48.0 KHz
Compression mode : Lossy
Stream size : 172 MiB (7%)
Language : English
Default : No
Forced : No
Внимание! Раздача ведётся путём добавления новых серий; при каждом добавлении создётся новый торрент. Чтобы начать докачку новой серии, пользователям необходимо сделать следующее:

  • Остановить скачивание,

  • Удалить старый торрент у себя из клиента (старые серии удалять не надо),

  • Скачать новый торрент и запустить его у себя в клиенте вместо старого, при этом указать клиенту путь в старую папку куда и должно происходить скачивание новых серий.

    Ваш клиент при этом должен произвести хеширование (проверку) старой папки (если не производит сам - помогите ему сделать это), и будет докачивать только те серии которых у вас ещё нет. Старые серии при этом не удаляются, а продолжают раздаваться!

    Eсли вы уже удалили старые серии, то предотвратить повторную закачку старых серий можно, отжав галочку в соответсвующих местах при запуске нового торрента. По возможности, желательно не удалять старые серии как можно дольше чтобы релизёр не столько продолжал раздавать старые серии, а смог сконцентрироваться на новых.
  • _Добавлена 2 серия.. Просьба перекачать торрент файл..
    _

    pb.wtf



    Скачать Шпион из Лондона через торрент http://pic.kartinco.top/images/11/hsxji.jpg Скачать фильм Шпион из Лондона через торрент бесплантно в хорошем качестве Описание: События разворачиваются вокруг случайной романтической встречи двух парней из совершенно разных слоев общества.. Один из них ... 7.8 10 4
    Торрент: Зарегистрирован [2016-01-14 06:15] · скачан: 6 раз
    Статус: √ проверено
    Размер: 4.89 GB
    Как cкачать? Как скачать Шпион из Лондона через торрент | qTorrent

    % Раздел Тема Автор DL S | L
    Зарубежные сериалы [ 4.04 GB ] Шпион из Лондона / London Spy / Сезон: 1 / Серия 1-2 из 5 / [2015 WEB-DL 720p] MVO BaibaKo MicroCharmelle Скачать
    1 | 0

    28-11-2019 20:33  

    Отключить всю рекламу на сайте

      Дорогой пользователь! Огромная просьба, поблагодарите релизера, оцените раздачу и оставьте свои комментарий, если Вы скачали Шпион из Лондона через торрент бесплатно! Внесите свою лепту в развитие PiratBit!
      Комментировать посты могут только пользователи прошедшие не сложную регистрацию
      Показать сообщения:    

      Шпион из Лондона через торрент
      Скачать бесплатно Шпион из Лондона
      Шпион из Лондона скачать торрент
      Шпион из Лондона смотреть онлайн
      Cкачать фильм Шпион из Лондона бесплатно
      Шпион из Лондона скачать торрент в хорошем качестве
      Шпион из Лондона смотреть онлайн бесплатно в хорошем качестве


      Вы не можете начинать темы
      Вы не можете отвечать на сообщения
      Вы не можете редактировать свои сообщения
      Вы не можете удалять свои сообщения
      Вы не можете голосовать в опросах
      Вы не можете прикреплять файлы к сообщениям
      Вы можете скачивать файлы