Ссылка на приватное зеркало нашего сайта всего за 1$. Внимание количество ограничено!!!

2 сезон

iTunes

1 сезон

1

2 сезон

2 сезон

iTunes

1 сезон

RePack

30

Ultimate

ВАЖНО

ИГРА 18+

pack

RePack

MK11
pack

Забери бонус

RePack

jed

!!Акция!!

Alien_Rage

RePack

fifa19

RePack

Assassins Creed: Odyssey

RePack

NEED FOR SPEED™ PAYBACK

4 сезон

9 сезон

Бесстыжие 9 сезон

Все сериалы

все сериалы на PB.wtf

RePack

FAR CRY 5
  

Сумеречные охотники / Shadowhunters / Сезон: 1 / Серия 1-13 из 13 (Дж. Майлз Дэйл) [2016, фэнтези, боевик, драма, WEB-DL 720p] MVO BaibaKo pb.wtf

Сумеречные охотники через торрент pb.wtf

Размер: 18.47 GB | Добавлен: 4 года 7 мес. назад | Торрент скачан:45 раз
Скачать  

14-01-2016 07:53 Сумеречные охотники Скачать торрент  

Сумеречные охотники / Shadowhunters«All the legends are true»

Год выпуска: 2016
Страна: США
Жанр: фэнтези, боевик, драма
Продолжительность: ~ 00:40:00 x 13
Перевод: Профессиональный (многоголосый, закадровый) BaibaKo
Реклама: В релизе присутствует реклама казино




Режиссер: Дж. Майлз Дэйл, МакДжи, Майрзи Алмас
Сценарий: Эд Дектер, Peter Binswanger, Холли Овертон
Продюссер: Дон Кармоди, Дэвид Корникан, Роберт Кульцер
Оператор: Эрик Кайла, Колин Холт
Композитор: Бен Дектер
Художник: Роб Грэй, Дэннис Девенпорт, Шелли Мэнселл
Монтаж: Рэнди Брикер




Сезон : 1
Эпизод: 1-13 из 13




Премьера в мире: 12 января 2016









В ролях:

Кэтрин МакНамара, Доминик Шервуд, Альберто Розенде, Мэттью Даддарио, Гарри Шам мл., Айзая Мустафа, Алан Ван Спрэнг, Кертис Морган, Дэвид Кастро, Джон Кор




Описание: Невзрачная и ничем не примечательная девушка Клэри Фрэй в свой 18-й день рождения узнает, что она является наследницей древнего семейства Сумеречных Охотников — таинственного клана полулюдей-полуангелов, которые обороняют мир от демонических тварей.. После похищения матери девушка вместе со своим другом Саймоном и сумеречным охотником Джейсом пытается ее спасти и… попадает в другую реальность..




Качество: WEB-DL 720p
Формат: MKV
Видео кодек: AVC
Аудио кодек: AC3
Видео: AVC / 1280x720 / 1.778 / 23.976fps / 4004 kbps
Аудио#2: Русский - AC3 / 48.0 KHz / 6 ch / 384 kbps
Аудио#3: Английский - AC3 / 48.0 KHz / 6 ch / 384 kbps
Субтитры: Нет






скриншот   скриншот   скриншот   скриншот   скриншот  


General
Unique ID : 236633481721904978017018319333757072726 (0xB205F3698C4109A7B6A7AB771200B556)
Format : Matroska
Format version : Version 4 / Version 2
File size : 1.35 GiB
Duration : 39mn 53s
Overall bit rate : 4 861 Kbps
Encoded date : UTC 2016-01-14 05:47:11
Writing application : mkvmerge v8.5.2 ('Crosses') 64bit
Writing library : libebml v1.3.3 + libmatroska v1.4.4
DURATION : 00:39:53.888000000
NUMBER_OF_FRAMES : 74809
NUMBER_OF_BYTES : 114906624
_STATISTICS_WRITING_APP : mkvmerge v8.5.2 ('Crosses') 64bit
_STATISTICS_WRITING_DATE_UTC : 2016-01-14 05:47:11
_STATISTICS_TAGS : BPS DURATION NUMBER_OF_FRAMES NUMBER_OF_BYTES

Video #1
ID : 1
Format : AVC
Format/Info : Advanced Video Codec
Format profile : High@L3.1
Format settings, CABAC : Yes
Format settings, ReFrames : 4 frames
Codec ID : V_MPEG4/ISO/AVC
Duration : 39mn 53s
Bit rate : 4 004 Kbps
Width : 1 280 pixels
Height : 720 pixels
Display aspect ratio : 16:9
Frame rate mode : Constant
Frame rate : 23.976 fps
Color space : YUV
Chroma subsampling : 4:2:0
Bit depth : 8 bits
Scan type : Progressive
Bits/(Pixel*Frame) : 0.181
Stream size : 1.11 GiB (82%)
Writing library : x264 core 142 r2479 dd79a61
Encoding settings : cabac=1 / ref=2 / deblock=1:0:0 / analyse=0x3:0x113 / me=hex / subme=7 / psy=1 / psy_rd=1.00:0.00 / mixed_ref=1 / me_range=16 / chroma_me=1 / trellis=1 / 8x8dct=1 / cqm=0 / deadzone=21,11 / fast_pskip=1 / chroma_qp_offset=-2 / threads=12 / lookahead_threads=2 / sliced_threads=0 / nr=0 / decimate=1 / interlaced=0 / bluray_compat=0 / constrained_intra=0 / bframes=3 / b_pyramid=2 / b_adapt=1 / b_bias=0 / direct=1 / weightb=1 / open_gop=0 / weightp=2 / keyint=240 / keyint_min=24 / scenecut=40 / intra_refresh=0 / rc_lookahead=40 / rc=2pass / mbtree=1 / bitrate=4004 / ratetol=1.0 / qcomp=0.60 / qpmin=0 / qpmax=69 / qpstep=4 / cplxblur=20.0 / qblur=0.5 / vbv_maxrate=17500 / vbv_bufsize=17500 / nal_hrd=none / filler=0 / ip_ratio=1.40 / aq=1:1.00
Default : No
Forced : No
Color range : Limited
Color primaries : BT.709
Transfer characteristics : BT.709
Matrix coefficients : BT.709

Audio #2
ID : 2
Format : AC-3
Format/Info : Audio Coding 3
Mode extension : CM (complete main)
Format settings, Endianness : Big
Codec ID : A_AC3
Duration : 39mn 53s
Bit rate mode : Constant
Bit rate : 384 Kbps
Channel(s) : 6 channels
Channel positions : Front: L C R, Side: L R, LFE
Sampling rate : 48.0 KHz
Compression mode : Lossy
Stream size : 110 MiB (8%)
Language : Russian
Default : Yes
Forced : No

Audio #3
ID : 3
Format : AC-3
Format/Info : Audio Coding 3
Mode extension : CM (complete main)
Format settings, Endianness : Big
Codec ID : A_AC3
Duration : 39mn 53s
Bit rate mode : Constant
Bit rate : 384 Kbps
Channel(s) : 6 channels
Channel positions : Front: L C R, Side: L R, LFE
Sampling rate : 48.0 KHz
Compression mode : Lossy
Stream size : 110 MiB (8%)
Language : English
Default : No
Forced : No
_Добавлена 13 серия.. (10.04.2016) Просьба перекачать торрент файл..
_

pb.wtf



Скачать Сумеречные охотники через торрент http://pic.kartinco.top/images/11/fl6eq.jpg Скачать фильм Сумеречные охотники через торрент бесплантно в хорошем качестве Описание: Невзрачная и ничем не примечательная девушка Клэри Фрэй в свой 18-й день рождения узнает, что она является наследницей древнего ... 8.1 10 16
Торрент: Зарегистрирован [2016-04-10 08:28] · скачан: 45 раз
Статус: √ проверено
Размер: 18.47 GB
Как cкачать? Как скачать Сумеречные охотники через торрент | qTorrent

% Раздел Тема Автор DL S | L
Зарубежные сериалы [ 10.13 GB ] Сумеречные охотники / Shadowhunters / Сезон: 2 / Серии 1-13 из 20 [2017 WEBRip-AVC] MVO [BaibaKo] GEKADOL Скачать
1 | 0
Зарубежные сериалы [ 22.73 GB ] Сумеречные охотники / Shadowhunters / Сезон: 1 / Серия 1-13 из 13 [2016 WEB-DL 1080p] MVO BaibaKo MicroCharmelle Скачать
1 | 0
Зарубежные сериалы [ 11.09 GB ] Сумеречные охотники / Shadowhunters / Сезон: 1 / Серии 1-13 из 13 [2016 WEB-DLRip-AVC] MVO [BaibaKo] GEKADOL Скачать
1 | 1

28-11-2019 20:33  

Отключить всю рекламу на сайте

    Дорогой пользователь! Огромная просьба, поблагодарите релизера, оцените раздачу и оставьте свои комментарий, если Вы скачали Сумеречные охотники через торрент бесплатно! Внесите свою лепту в развитие PiratBit!
    Комментировать посты могут только пользователи прошедшие не сложную регистрацию
    Показать сообщения:    

    Сумеречные охотники через торрент
    Скачать бесплатно Сумеречные охотники
    Сумеречные охотники скачать торрент
    Сумеречные охотники смотреть онлайн
    Cкачать фильм Сумеречные охотники бесплатно
    Сумеречные охотники скачать торрент в хорошем качестве
    Сумеречные охотники смотреть онлайн бесплатно в хорошем качестве


    Вы не можете начинать темы
    Вы не можете отвечать на сообщения
    Вы не можете редактировать свои сообщения
    Вы не можете удалять свои сообщения
    Вы не можете голосовать в опросах
    Вы не можете прикреплять файлы к сообщениям
    Вы можете скачивать файлы