Ссылка на приватное зеркало всего за 1$. Внимание количество ограничено!!!

OK

1+1

iTunes

мы

OK

1

WEB-DLRip

Джокер

Пифагор

Ведьмак / The Witcher сериал

iTunes

ПШазам

ОК

Оно 2

iTunes

30
pack

Вам бонус

ВАЖНО

!!Акция!!

Alien_RageХит недели

RePack

Resident Evil 21

ИГРА 18+

pack

RePack

jed

RePack

fifa19

RePack

Assassins Creed: Odyssey

RePack

NEED FOR SPEED™ PAYBACK

4 сезон

9 сезон

Бесстыжие 9 сезон

Все сериалы

все сериалы на PB.wtf

RePack

FAR CRY 5
  

Химик / The Chemist (Арт Камачо) [2015, боевик, WEB-DLRip] MVO pb.wtf

Химик через торрент pb.wtf

Размер: 1.46 GB | Добавлен: 4 года назад | Торрент скачан:614 раз
Скачать  

14-01-2016 17:21 Химик Скачать торрент  


Химик / The Chemist


ИНФОРМАЦИЯ:
Год выпуска:2015
Страна: США
Жанр: боевик
Продолжительность: 01:41:59
Перевод: Профессиональный многоголосый [официальный звук]
Режиссер: Арт Камачо

В Ролях:


Саша Митчелл (Blade), Ричард Греко (Stone), Мартин Коув (Frank), Пэтрик Килпэтрик (Claxton), Роберт Миано (Joey), Оливье Грюнер (Ronus Steele), Маршал Хилтон (Vitale), Нина Бергман (Trinidad), Эшли Этвуд (Riskin's Beautiful Girl), Стефани Герард (Gabriela), Стивен Делл (Blaine), Диегодиего (Gay Barista)

Описание:
Стил - немолодой убийца, который подводит своего работодателя, когда отказывается убить только что встреченную им женщину. Убегая, Стил становится следующей жертвой дуэли между наёмниками - до тех пор, пока не узнает информацию, которая заставляет подвергнуть сомнению все то, что он знал раньше. Запутывая все еще больше, он влюбляется в свою потенциальную мишень.


ТЕХ.ДАННЫЕ:
Качество: WEB-DLRip
Формат: AVI
Видео: XviD, 720x400 (16:9), 1765 kbps, 25 fps, 0,245 bpp
Аудио: AC3 / 2.0 / 48 kHz / 192 kbps / 16 bit


General
Complete name : D:\Торенты\H1m1k.2015.P.WEBDLRip.avi
Format : AVI
Format/Info : Audio Video Interleave
File size : 1.46 GiB
Duration : 1h 41mn
Overall bit rate : 2 048 Kbps
Writing application : VirtualDubMod 1.5.10.3 | www.virtualdub-fr.org || (build 2550/release)
Writing library : VirtualDubMod build 2550/release

Video
ID : 0
Format : MPEG-4 Visual
Format profile : Advanced Simple@L5
Format settings, BVOP : 2
Format settings, QPel : No
Format settings, GMC : No warppoints
Format settings, Matrix : Default (MPEG)
Codec ID : XVID
Codec ID/Hint : XviD
Duration : 1h 41mn
Bit rate : 1 766 Kbps
Width : 720 pixels
Height : 400 pixels
Display aspect ratio : 16:9
Frame rate : 25.000 fps
Color space : YUV
Chroma subsampling : 4:2:0
Bit depth : 8 bits
Scan type : Progressive
Compression mode : Lossy
Bits/(Pixel*Frame) : 0.245
Stream size : 1.26 GiB (86%)
Writing library : XviD 1.2.1 (UTC 2008-12-04)

Audio
ID : 1
Format : AC-3
Format/Info : Audio Coding 3
Mode extension : CM (complete main)
Codec ID : 2000
Duration : 1h 41mn
Bit rate mode : Constant
Bit rate : 192 Kbps
Channel(s) : 2 channels
Channel positions : Front: L R
Sampling rate : 48.0 KHz
Bit depth : 16 bits
Compression mode : Lossy
Stream size : 140 MiB (9%)
Alignment : Split accross interleaves
Скриншоты:

© Оформление by .::Ворон::.
pb.wtf



Скачать Химик через торрент http://pic.kartinco.top/images/6/ordi9.jpg Скачать фильм Химик через торрент бесплантно в хорошем качестве Описание: Стил - немолодой убийца, который подводит своего работодателя, когда отказывается убить только что встреченную им женщину. ... 8.7 10 15
Торрент: Зарегистрирован [2016-01-14 17:21] · скачан: 614 раз
Статус: T временная
Размер: 1.46 GB
Как cкачать? Как скачать Химик через торрент | qTorrent

28-11-2019 20:33  

Отключить всю рекламу на сайте

15-01-2016 12:07 Химик Скачать торрент  

и как оно?pb.wtf



15-01-2016 13:55 Химик Скачать торрент  

честно... режиссера или оператора плющит каждые 10-15 секунд... нафиг они были нужны эти эффекты, все впечатление от просмотра убивают напрочь. Грюнер, старый пердун в таком дерьме уже снимается просто жесть(((( Слишком дешево и не профессионально. Студенческое кино.pb.wtf



15-01-2016 18:35 Химик Скачать торрент  

Да уж химик.Лажа короче.pb.wtf



    Дорогой пользователь! Огромная просьба, поблагодарите релизера, оцените раздачу и оставьте свои комментарий, если Вы скачали Химик через торрент бесплатно! Внесите свою лепту в развитие PiratBit!
    Комментировать посты могут только пользователи прошедшие не сложную регистрацию
    Показать сообщения:    

    Химик через торрент
    Скачать бесплатно Химик
    Химик скачать торрент
    Химик смотреть онлайн
    Cкачать фильм Химик бесплатно
    Химик скачать торрент в хорошем качестве
    Химик смотреть онлайн бесплатно в хорошем качестве


    Вы не можете начинать темы
    Вы не можете отвечать на сообщения
    Вы не можете редактировать свои сообщения
    Вы не можете удалять свои сообщения
    Вы не можете голосовать в опросах
    Вы не можете прикреплять файлы к сообщениям
    Вы можете скачивать файлы