Ссылка на приватное зеркало нашего сайта всего за 1$. Внимание количество ограничено!!!

2 сезон

iTunes

1 сезон

1

2 сезон

2 сезон

iTunes

1 сезон

RePack

30

Ultimate

ВАЖНО

ИГРА 18+

pack

RePack

MK11
pack

Забери бонус

RePack

jed

!!Акция!!

Alien_Rage

RePack

fifa19

RePack

Assassins Creed: Odyssey

RePack

NEED FOR SPEED™ PAYBACK

4 сезон

9 сезон

Бесстыжие 9 сезон

Все сериалы

все сериалы на PB.wtf

RePack

FAR CRY 5
  

Под кожей / Unter der Haut (Клаудия Лоренц) [2015, драма, WEB-DLRip, Любительский (одноголосый) pb.wtf

Под кожей через торрент pb.wtf

Размер: 1.45 GB | Добавлен: 4 года 10 мес. назад | Торрент скачан:63 раза
Скачать  

14-01-2016 18:21 Под кожей Скачать торрент  


Под кожей / Unter der Haut


ИНФОРМАЦИЯ:
Год выпуска:2015
Страна: Швейцария
Жанр: драма
Продолжительность: 01:30:52
Перевод: Любительский (одноголосый)
Режиссер: Клаудия Лоренц

В Ролях:
Урсина Ларди (Alice), Доминик Янн (Frank), Рифка Фер (Nina), Flurin Giger (Luca), Lara Lassnig (Sophie), Marin Blülle (Dario), Nicolas Rosat (Robert), Linda Olsansky (Monica), Антонио Буиль (Pablo), Nalu Dillier (Kind #1 Geburtstagsfest), Medea Glatt (Kind #2 Geburtstagsfest), Leonard Schafer (Kind #3 Geburtstagsfest)

Описание:
После восемнадцати лет брака, Алиса сталкивается с тем, что ее муж Фрэнк чувствует что все больше и больше его привлекают мужчины. Не только Фрэнк, но и она и их трое детей подвергаются необратимым изменениям.

  • Мировая премьера:7 января 2015

    ТЕХ.ДАННЫЕ:
    Качество: WEB-DLRip
    Формат: AVI
    Видео: XviD, 720x400 (16:9), 1716 kbps, 25 fps, 0,238 bpp
    Аудио №1: AC3 / 2.0 / 48 kHz / 192 kbps /Русский
    Аудио №2: AC3 / 5.1 / 48 kHz / 320 kbps /Немецкий


    General
    Complete name : D:\Торенты\Unter.der.Haut.2015.WEB-DLRip.avi
    Format : AVI
    Format/Info : Audio Video Interleave
    File size : 1.45 GiB
    Duration : 1h 30mn
    Overall bit rate : 2 276 Kbps
    Writing application : VirtualDubMod 1.5.10.3 (build 2550/release)
    Writing library : VirtualDubMod build 2550/release

    Video
    ID : 0
    Format : MPEG-4 Visual
    Codec ID : XVID
    Codec ID/Hint : XviD
    Duration : 1h 30mn
    Source duration : 1h 8mn
    Bit rate : 1 716 Kbps
    Width : 720 pixels
    Height : 400 pixels
    Display aspect ratio : 16:9
    Frame rate : 25.000 fps
    Color space : YUV
    Chroma subsampling : 4:2:0
    Compression mode : Lossy
    Bits/(Pixel*Frame) : 0.238
    Stream size : 836 MiB (56%)

    Audio #1
    ID : 1
    Format : AC-3
    Format/Info : Audio Coding 3
    Codec ID : 2000
    Duration : 1h 30mn
    Source duration : 1h 8mn
    Bit rate mode : Constant
    Bit rate : 192 Kbps
    Channel(s) : 2 channels
    Sampling rate : 48.0 KHz
    Compression mode : Lossy
    Stream size : 93.5 MiB (6%)
    Alignment : Aligned on interleaves
    Interleave, duration : 40 ms (1.00 video frame)
    Interleave, preload duration : 500 ms

    Audio #2
    ID : 2
    Format : AC-3
    Format/Info : Audio Coding 3
    Codec ID : 2000
    Duration : 1h 30mn
    Source duration : 1h 8mn
    Bit rate mode : Constant
    Bit rate : 320 Kbps
    Channel(s) : 6 channels
    Sampling rate : 48.0 KHz
    Compression mode : Lossy
    Stream size : 156 MiB (11%)
    Alignment : Aligned on interleaves
    Interleave, duration : 40 ms (1.00 video frame)
    Interleave, preload duration : 500 ms
    Скриншоты:

    © Оформление by .::Ворон::.
    pb.wtf



  • Скачать Под кожей через торрент http://pic.kartinco.top/images/6/ordi9.jpg Скачать фильм Под кожей через торрент бесплантно в хорошем качестве Описание: После восемнадцати лет брака, Алиса сталкивается с тем, что ее муж Фрэнк чувствует что все больше и больше его привлекают ... 1 10 1
    Торрент: Зарегистрирован [2016-01-14 18:21] · скачан: 63 раз
    Статус: T временная
    Размер: 1.45 GB
    Как cкачать? Как скачать Под кожей через торрент | qTorrent

    28-11-2019 20:33  

    Отключить всю рекламу на сайте

      Дорогой пользователь! Огромная просьба, поблагодарите релизера, оцените раздачу и оставьте свои комментарий, если Вы скачали Под кожей через торрент бесплатно! Внесите свою лепту в развитие PiratBit!
      Комментировать посты могут только пользователи прошедшие не сложную регистрацию
      Показать сообщения:    

      Под кожей через торрент
      Скачать бесплатно Под кожей
      Под кожей скачать торрент
      Под кожей смотреть онлайн
      Cкачать фильм Под кожей бесплатно
      Под кожей скачать торрент в хорошем качестве
      Под кожей смотреть онлайн бесплатно в хорошем качестве


      Вы не можете начинать темы
      Вы не можете отвечать на сообщения
      Вы не можете редактировать свои сообщения
      Вы не можете удалять свои сообщения
      Вы не можете голосовать в опросах
      Вы не можете прикреплять файлы к сообщениям
      Вы можете скачивать файлы