Всегда рабочее зеркало без VPN и Proxy просто перед .vidak.icu напиши любое слово или цифру, Пример http://t8kp.vidak.icu

MVO

2 сезон

1 сезон

1

1 сезон

iTunes

2 сезон

13

1 сезон

Распродажа

pack

Рекомендуем

Пиратка

30

ВАЖНО

RePack

MK11

RePack

jed

RePack

fifa19

RePack

RDR2

RePack

NEED FOR SPEED™ PAYBACK

Кинопоиск HD

6 сезон

 Острые козырьки 6 сезон

Все сериалы

все сериалы на PB.wtf

RePack

FAR CRY 5

Anonymous, нам критически не хватает 5601 руб. на оплату серверов и переферии за Апрель, помоги нам пожалуйста, вся надежда только на тебя. В благодарность мы отключим тебе всю рекламу на сайте!

×
  
Magnet ссылка

Глушь / Backcountry (Адам МакДональд) [2014 г., ужасы, триллер, драма, HDRip, Авторский одноголосый "Д.Есарев"] pb.wtf

Глушь через торрент pb.wtf

Размер: 1.43 GB | Добавлен: 6 лет 4 мес. назад | Торрент скачан:14 раз
Смотреть онлайн Глушь | Скачать    Ребята, помогите собрать деньги на оплату серверов!!!

15-01-2016 19:23 Глушь Скачать торрент  

Глушь / Backcountry
Год выпуска: 2014
Страна: Канада / Fella Films, Northern Ontario Heritage Fund, Téléfilm Canada
Жанр: ужасы, триллер, драма
Продолжительность: 01:31:32
Перевод: Авторский одноголосый (Д.Есарев)

Режиссер: Адам МакДональд

IMDB 6.00 (7216)


В ролях: Мисси Перегрим, Джефф Руп, Эрик Бальфур, Николас Кэмпбелл

Описание: Городская пара оказалась без провианта посреди дикой глуши на территории хищного черного медведя.

Качество: HDRip
Формат: AVI
Видео кодек: XviD
Аудио кодек: AC3
Видео: 720x304 (2.37:1), 23.976 fps, XviD build 50 ~1772 kbps avg, 0.34 bit/pixel
Аудио: 48 kHz, AC3 Dolby Digital, 3/2 (L,C,R,l,r) + LFE ch, ~448 kbps
скриншот   скриншот   скриншот   скриншот   скриншот   скриншот  

Общее
Полное имя : F:\кино\Глушь.2014.A.HDRip.avi
Формат : AVI
Формат/Информация : Audio Video Interleave
Размер файла : 1,43 Гбайт
Продолжительность : 1 ч. 31 м.
Общий поток : 2230 Кбит/сек
Программа кодирования : VirtualDubMod 1.5.10.3 | www.virtualdub-fr.org || (build 2550/release)
Библиотека кодирования : VirtualDubMod build 2550/release

Видео
Идентификатор : 0
Формат : MPEG-4 Visual
Профиль формата : Advanced Simple@L5
Параметр BVOP формата : 2
Параметр QPel формата : Нет
Параметр GMC формата : Без точки перехода
Параметр матрицы формата : Default (H.263)
Идентификатор кодека : XVID
Идентификатор кодека/Подсказка : XviD
Продолжительность : 1 ч. 31 м.
Битрейт : 1772 Кбит/сек
Ширина : 720 пикселей
Высота : 304 пикселя
Соотношение сторон : 2,35:1
Частота кадров : 23,976 (23976/1000) кадра/сек
Цветовое пространство : YUV
Субдискретизация насыщенности : 4:2:0
Битовая глубина : 8 бит
Тип развёртки : Прогрессивная
Метод сжатия : С потерями
Бит/(Пиксели*Кадры) : 0.338
Размер потока : 1,13 Гбайт (79%)
Библиотека кодирования : XviD 1.2.1 (UTC 2008-12-04)

Аудио
Идентификатор : 1
Формат : AC-3
Формат/Информация : Audio Coding 3
Расширение режима : CM (complete main)
Параметр Endianness формата : Big
Идентификатор кодека : 2000
Продолжительность : 1 ч. 31 м.
Вид битрейта : Постоянный
Битрейт : 448 Кбит/сек
Каналы : 6 каналов
Расположение каналов : Front: L C R, Side: L R, LFE
Частота : 48,0 КГц
Частота кадров : 31,250 кадров/сек (1536 spf)
Метод сжатия : С потерями
Размер потока : 293 Мбайт (20%)
Выравнивание : Разделение по промежуткам
Продолжительность промежутка : 42 мс. (1,00 видеокадр)
Время предзагрузки промежутка : 500 мс.

pb.wtf



Скачать Глушь через торрент http://i66.fastpic.ru/big/2016/0115/e3/b3fc63eb705adfafd10c45cee2605ce3.jpg Скачать, смотреть онлайн Глушь бесплантно в хорошем качестве Описание: Городская пара оказалась без провианта посреди дикой глуши на территории хищного черного ... 5 10 1
Торрент: Зарегистрирован [2016-01-15 19:23] · скачан: 14 раз
Статус: √ проверено
Размер: 1.43 GB
Как cкачать? Как скачать Глушь через торрент | UTorrent

% Раздел Тема Автор DL S | L
R.G. Resident & PiratVoice - Фильмы, Видео [ 4.31 GB ] Глушь / Backcountry [2014 BDRip 720p Авторский Д.Есарев] R.G.Resident Хорват Скачать
1 | 0
Фильмы (Blu-ray, BD-Remux, HDDVD) [ 29.38 GB ] Глушь / Backcountry [2014 BDRemux 1080p от HDClub / Есарев] Ворон Скачать
1 | 0
Фильмы с авторской озвучкой [ 1.46 GB ] Глушь / Backcountry [2014 BDRip] AVO [Дмитрий Есарев] Twi7ter Скачать
2 | 0
Фильмы с авторской озвучкой [ 2.18 GB ] Глушь / Backcountry [2014 BDRip-AVC] AVO [Дмитрий Есарев] potroks Скачать
1 | 0
Фильмы 2014 (Звук TS, Cam, VO, DVO) [ 1.42 GB ] Глушь / Дикая местность / Backcountry [2014 BDRip] DVO [DeadSno & den904] Twi7ter Скачать
1 | 0
Фильмы 2014 (Звук TS, Cam, VO, DVO) [ 1.37 GB ] Глушь / Дикая местность / Backcountry [2014 WEB-DLRip) VO [Xixidok] GEKADOL Скачать
1 | 1

28-11-2019 20:33  

Отключить всю рекламу на сайте

    Дорогой пользователь! Огромная просьба, поблагодарите релизера, оцените раздачу и оставьте свои комментарий, если Вы скачали Глушь через торрент бесплатно!
    Комментировать посты могут только пользователи прошедшие не сложную регистрацию
    Показать сообщения:    

    Глушь через торрент
    Скачать бесплатно Глушь
    Глушь скачать торрент
    Глушь смотреть онлайн
    Cкачать фильм Глушь бесплатно
    Глушь скачать торрент в хорошем качестве
    Глушь смотреть онлайн бесплатно в хорошем качестве


    Вы не можете начинать темы
    Вы не можете отвечать на сообщения
    Вы не можете редактировать свои сообщения
    Вы не можете удалять свои сообщения
    Вы не можете голосовать в опросах
    Вы не можете прикреплять файлы к сообщениям
    Вы можете скачивать файлы