Ссылка на приватное зеркало всего за 1$. Внимание количество ограничено!!!

iTunes

iTunes

iTunes

1

iTunes

iTunes

iTunes

iTunes

iTunes

30
pack

$ от Little Big

ВАЖНО

!!Акция!!

Alien_RageХит недели

RePack

Resident Evil 21

ИГРА 18+

pack

RePack

jed

!!Акция!!

Alien_Rage

RePack

fifa19

RePack

Assassins Creed: Odyssey

RePack

NEED FOR SPEED™ PAYBACK

4 сезон

9 сезон

Бесстыжие 9 сезон

Все сериалы

все сериалы на PB.wtf

RePack

FAR CRY 5
  

Легенда / Legend (Брайан Хелгеленд) [2015, криминал, триллер, драма, WEB-DL 1080p, Дубляж] iTunes pb.wtf

Легенда через торрент pb.wtf

Размер: 4.5 GB | Добавлен: 4 года 5 мес. назад | Торрент скачан:629 раз
Скачать  

15-01-2016 20:42 Легенда Скачать торрент  


Легенда / Legend
««Преступление – как профессия. Взлет и падение легендарных близнецов Крэй»»

ИНФОРМАЦИЯ:
Год выпуска:2015
Страна: Великобритания, Франция
Жанр: криминал, триллер, драма
Продолжительность: 02:11:09
Перевод: Дубляж - [Лицензия / iTunes]
Режиссер: Брайан Хелгеленд

В Ролях:


Том Харди (Ronald Kray / Reggie Kray), Эмили Браунинг (Frances Shea), Дэвид Тьюлис (Leslie Payne), Даффи (Timi Yuro), Кристофер Экклстон (Nipper Read), Чазз Пальминтери (Angelo Bruno), Колин Морган (Frank Shea), Джошуа Хилл (Constable Scott), Пол Андерсон (Albert Donoghue), Тара Фитцджеральд (Mrs. Shea), Николас Фэррел (Dr. Humphries), Адам Фогерти (Pat Connolly)

Описание:
Фильм расскажет историю близнецов Реджи и Ронни Крэй, культовых фигур преступного мира Великобритании 1960-х. Братья возглавляли самую влиятельную бандитскую группировку Ист-Энда. В их послужном списке: вооруженные грабежи, рэкет, поджоги, покушения, убийства и собственный ночной клуб, куда доезжали даже голливудские знаменитости. Среди их жертв - криминальные авторитеты Джек МакВитти и Джордж Корнелл.

  • Мировая премьера:9 сентября 2015

    ТЕХ.ДАННЫЕ:
    Качество: WEB-DL 1080p
    Формат: MKV
    Видео: AVC, 1920x804 (2.40:1), 4432 kbps, 24 fps, 0,120 bpp
    Аудио: русский / AC3 / 5.1 / 48 kHz / 384 kbps / 16 bit ||
    Навигация по главам: есть


    General
    Unique ID : 213183668957768674839705067257256345068 (0xA061AE612864F69F965198F45581FDEC)
    Complete name : D:\Торенты\Кино\L3g3Hd4.2015.D.WEB-DL-1080p.mkv
    Format : Matroska
    Format version : Version 4 / Version 2
    File size : 4.50 GiB
    Duration : 2h 11mn
    Overall bit rate : 4 914 Kbps
    Encoded date : UTC 2016-01-15 19:15:52
    Writing application : mkvmerge v8.3.0 ('Over the Horizon') 64bit
    Writing library : libebml v1.3.1 + libmatroska v1.4.2

    Video
    ID : 1
    Format : AVC
    Format/Info : Advanced Video Codec
    Format profile : High@L4.0
    Format settings, CABAC : Yes
    Format settings, ReFrames : 5 frames
    Codec ID : V_MPEG4/ISO/AVC
    Duration : 2h 11mn
    Bit rate : 4 432 Kbps
    Width : 1 920 pixels
    Height : 804 pixels
    Display aspect ratio : 2.40:1
    Frame rate : 24.000 fps
    Color space : YUV
    Chroma subsampling : 4:2:0
    Bit depth : 8 bits
    Scan type : Progressive
    Bits/(Pixel*Frame) : 0.120
    Stream size : 4.06 GiB (90%)
    Language : English
    Default : Yes
    Forced : No
    Color primaries : BT.709-5, BT.1361, IEC 61966-2-4, SMPTE RP177
    Transfer characteristics : BT.709-5, BT.1361
    Matrix coefficients : BT.709-5, BT.1361, IEC 61966-2-4 709, SMPTE RP177

    Audio
    ID : 2
    Format : AC-3
    Format/Info : Audio Coding 3
    Mode extension : CM (complete main)
    Codec ID : A_AC3
    Duration : 2h 11mn
    Bit rate mode : Constant
    Bit rate : 384 Kbps
    Channel(s) : 6 channels
    Channel positions : Front: L C R, Side: L R, LFE
    Sampling rate : 48.0 KHz
    Bit depth : 16 bits
    Compression mode : Lossy
    Stream size : 360 MiB (8%)
    Language : Russian
    Default : Yes
    Forced : No

    Menu
    00:00:00.000 : en:Глава 1
    00:05:40.000 : en:Глава 2
    00:11:08.000 : en:Глава 3
    00:17:25.000 : en:Глава 4
    00:23:41.000 : en:Глава 5
    00:29:14.000 : en:Глава 6
    00:34:32.000 : en:Глава 7
    00:40:30.000 : en:Глава 8
    00:46:06.000 : en:Глава 9
    00:51:12.000 : en:Глава 10
    00:57:58.000 : en:Глава 11
    01:03:43.000 : en:Глава 12
    01:09:51.000 : en:Глава 13
    01:15:57.000 : en:Глава 14
    01:21:32.000 : en:Глава 15
    01:26:50.000 : en:Глава 16
    01:32:26.000 : en:Глава 17
    01:37:40.000 : en:Глава 18
    01:43:10.000 : en:Глава 19
    01:48:47.000 : en:Глава 20
    01:54:16.000 : en:Глава 21
    01:59:21.000 : en:Глава 22
    Скриншоты:

    © Оформление by .::Ворон::.
    pb.wtf



  • Скачать Легенда через торрент http://pic.kartinco.top/images/6/ordi9.jpg Скачать фильм Легенда через торрент бесплантно в хорошем качестве Описание: Фильм расскажет историю близнецов Реджи и Ронни Крэй, культовых фигур преступного мира Великобритании 1960-х. Братья возглавляли ... 10 10 8
    Info! Золотая раздача, скачанное не засчитывается.
    Торрент: Зарегистрирован [2016-01-15 20:42] · скачан: 629 раз
    Статус: √ проверено
    Размер: 4.5 GB
    Как cкачать? Как скачать Легенда через торрент | qTorrent

    % Раздел Тема Автор DL S | L
    Фильмы 2014 [DVDrip, WEB-DLRip, HDrip] [ 746 MB ] Живи легендой / Living Legends [2014 WEB-DLRip] MVO bober100 Скачать
    3 | 0
    Фильмы (WEB-DL 720p, 1080p) [ 3.14 GB ] Живи легендой / Living Legends [2014 WEB-DL 1080p] MVO bober100 Скачать
    8 | 0
    Фильмы 2014 [DVDrip, WEB-DLRip, HDrip] [ 1.46 GB ] Живи легендой / Living Legends [2014 WEB-DLRip] MVO bober100 Скачать
    3 | 0
    Зарубежные Мультфильмы (WEB-DL 720p, 1080p) [ 2.88 GB ] Остров монстров / Легенда о Хэллоуиан / Legend of Hallowaiian [2018 Мультфильм WEB-DL 1080p] MVO bober100 Скачать
    2 | 0
    Фильмы 2015 [DVDrip, WEB-DLRip, HDrip] [ 1.42 GB ] Убойная стрижка / Легенда о Барни Томсоне / The Legend of Barney Thomson [2015 BDRip] - Twi7ter Скачать
    1 | 0
    Фильмы [HD 720p, 1080p] (Хороший звук DUB, MVO) [ 7.46 GB ] Тарзан. Легенда / The Legend of Tarzan [2016 BDRip 1080p] sanekbest1 Скачать
    1 | 0
    Фильмы 2016 [DVDrip, WEB-DLRip, HDrip] (DUB, MVO) [ 2.14 GB ] Тарзан. Легенда / The Legend of Tarzan [2016 BDRip] - Twi7ter Скачать
    2 | 0

    28-11-2019 20:33  

    Отключить всю рекламу на сайте

    15-01-2016 20:46 Легенда Скачать торрент  

    ОТ ДУШИ!pb.wtf



    16-01-2016 15:24 Легенда Скачать торрент  

    хороший фильм стоит посмотреть))pb.wtf



      Дорогой пользователь! Огромная просьба, поблагодарите релизера, оцените раздачу и оставьте свои комментарий, если Вы скачали Легенда через торрент бесплатно! Внесите свою лепту в развитие PiratBit!
      Комментировать посты могут только пользователи прошедшие не сложную регистрацию
      Показать сообщения:    

      Легенда через торрент
      Скачать бесплатно Легенда
      Легенда скачать торрент
      Легенда смотреть онлайн
      Cкачать фильм Легенда бесплатно
      Легенда скачать торрент в хорошем качестве
      Легенда смотреть онлайн бесплатно в хорошем качестве


      Вы не можете начинать темы
      Вы не можете отвечать на сообщения
      Вы не можете редактировать свои сообщения
      Вы не можете удалять свои сообщения
      Вы не можете голосовать в опросах
      Вы не можете прикреплять файлы к сообщениям
      Вы можете скачивать файлы