Ссылка на приватное зеркало всего за 1$. Внимание количество ограничено!!!

iTunes

iTunes

iTunes

1

iTunes

iTunes

iTunes

iTunes

iTunes

30
pack

$ от Little Big

ВАЖНО

!!Акция!!

Alien_RageХит недели

RePack

Resident Evil 21

ИГРА 18+

pack

RePack

jed

!!Акция!!

Alien_Rage

RePack

fifa19

RePack

Assassins Creed: Odyssey

RePack

NEED FOR SPEED™ PAYBACK

4 сезон

9 сезон

Бесстыжие 9 сезон

Все сериалы

все сериалы на PB.wtf

RePack

FAR CRY 5
  

Черная месса / Black Mass (Скотт Купер / Scott Cooper) [2015, США, Великобритания, драма, криминал, биография, WEB-DL 1080p, Дубляж] iTunes + ENG + SUB pb.wtf

Черная месса через торрент pb.wtf

Размер: 4.57 GB | Добавлен: 4 года 5 мес. назад | Торрент скачан:515 раз
Скачать  

16-01-2016 02:41 Черная месса Скачать торрент  

Черная месса / Black Mass
«Тайный сговор ФБР и одного из самых жестоких гангстеров в истории»


  • Год выпуска: 2015
  • Страна: США, Великобритания
  • Жанр: драма, криминал, биография
  • Продолжительность: 02:02:33
  • Перевод: Дубляж - [Лицензия / iTunes]
  • Субтитры: русские
  • Режиссер: Скотт Купер / Scott Cooper
  • В ролях:

    Джонни Депп (James «Whitey» Bulger), Джоэл Эдгертон (John Connolly), Бенедикт Камбербэтч (Billy Bulger), Кевин Бейкон (Charles McGuire), Джесси Племонс (Kevin Weeks), Питер Сарсгаард (Brian Halloran), Кори Столл (Fred Wyshak), Дакота Джонсон (Lindsey Cyr), Рори Кокрейн (Steve Flemmi), Дэвид Харбор (John Morris), Адам Скотт (FBI Agent Robert Fitzpatrick), Джулианна Николсон (Marianne Connolly)


  • Картина расскажет об Уайти Балджере, знаменитом бостонском гангстере, который 16 лет находился в бегах и был арестован в июне 2011 года в Санта-Монике. Балджер, которому уже за 80, обвинялся в рэкете, был замешан в 19 убийствах и в то же время работал информатором на ФБР. Чтобы не попасть за решетку, он исчез в 1995 году и 16 лет успешно скрывался от правосудия.
  • Рейтинг:



  • Качество: WEB-DL 1080p
  • Формат: :MKV
  • Видео кодек: AVC
  • Аудио кодек: AC3
  • Видео: 1916x796 (2.40:1), 4467 kbps, 23,976 fps, 0,122 bpp
  • Аудио №1: русский / 5.1 / 48 kHz / 384 kbps / 16 bit
  • Аудио №2: английский / 5.1 / 48 kHz / 384 kbps / 16 bit
  • Релиз от: GEKADOL

    Код:

    General
    Unique ID                                : 239507119410994351634448531050856697683 (0xB42F64B0682D73E29C0BB4AE8213CF53)
    Complete name                            : G:\Black Mass.2O15.D.WEB-DL.1080p.mkv
    Format                                   : Matroska
    Format version                           : Version 2
    File size                                : 4.57 GiB
    Duration                                 : 2h 2mn
    Overall bit rate                         : 5 342 Kbps
    Movie name                               : EVO
    Encoded date                             : UTC 2016-01-16 00:30:16
    Writing application                      : mkvmerge v8.3.0 ('Over the Horizon') 64bit
    Writing library                          : libebml v1.3.1 + libmatroska v1.4.2
    DURATION                                 : 02:02:33.920000000
    NUMBER_OF_FRAMES                         : 229810
    NUMBER_OF_BYTES                          : 352988160
    _STATISTICS_WRITING_APP                  : mkvmerge v8.3.0 ('Over the Horizon') 64bit
    _STATISTICS_WRITING_DATE_UTC             : 2016-01-16 00:30:16
    _STATISTICS_TAGS                         : BPS DURATION NUMBER_OF_FRAMES NUMBER_OF_BYTES

    Video
    ID                                       : 1
    Format                                   : AVC
    Format/Info                              : Advanced Video Codec
    Format profile                           : High@L4.0
    Format settings, CABAC                   : Yes
    Format settings, ReFrames                : 5 frames
    Codec ID                                 : V_MPEG4/ISO/AVC
    Duration                                 : 2h 2mn
    Bit rate                                 : 4 468 Kbps
    Width                                    : 1 916 pixels
    Height                                   : 796 pixels
    Display aspect ratio                     : 2.40:1
    Frame rate                               : 23.976 fps
    Color space                              : YUV
    Chroma subsampling                       : 4:2:0
    Bit depth                                : 8 bits
    Scan type                                : Progressive
    Bits/(Pixel*Frame)                       : 0.122
    Stream size                              : 3.82 GiB (84%)
    Language                                 : English
    Default                                  : Yes
    Forced                                   : No
    Color primaries                          : BT.709-5, BT.1361, IEC 61966-2-4, SMPTE RP177
    Transfer characteristics                 : BT.709-5, BT.1361
    Matrix coefficients                      : BT.709-5, BT.1361, IEC 61966-2-4 709, SMPTE RP177

    Audio #1
    ID                                       : 2
    Format                                   : AC-3
    Format/Info                              : Audio Coding 3
    Mode extension                           : CM (complete main)
    Codec ID                                 : A_AC3
    Duration                                 : 2h 2mn
    Bit rate mode                            : Constant
    Bit rate                                 : 384 Kbps
    Channel(s)                               : 6 channels
    Channel positions                        : Front: L C R, Side: L R, LFE
    Sampling rate                            : 48.0 KHz
    Bit depth                                : 16 bits
    Compression mode                         : Lossy
    Stream size                              : 337 MiB (7%)
    Language                                 : Russian
    Default                                  : Yes
    Forced                                   : No

    Audio #2
    ID                                       : 3
    Format                                   : AC-3
    Format/Info                              : Audio Coding 3
    Mode extension                           : CM (complete main)
    Codec ID                                 : A_AC3
    Duration                                 : 2h 2mn
    Bit rate mode                            : Constant
    Bit rate                                 : 384 Kbps
    Channel(s)                               : 6 channels
    Channel positions                        : Front: L C R, Side: L R, LFE
    Sampling rate                            : 48.0 KHz
    Bit depth                                : 16 bits
    Compression mode                         : Lossy
    Stream size                              : 337 MiB (7%)
    Language                                 : English
    Default                                  : No
    Forced                                   : No

    Text
    ID                                       : 4
    Format                                   : UTF-8
    Codec ID                                 : S_TEXT/UTF8
    Codec ID/Info                            : UTF-8 Plain Text
    Language                                 : Russian
    Default                                  : Yes
    Forced                                   : Yes

    Menu
    00:00:00.000                             : en:1
    00:09:44.000                             : en:2
    00:18:27.000                             : en:3
    00:28:49.000                             : en:4
    00:41:49.000                             : en:5
    00:51:58.000                             : en:6
    00:59:19.000                             : en:7
    01:09:17.000                             : en:8
    01:19:53.000                             : en:9
    01:28:47.000                             : en:10
    01:39:44.000                             : en:11
    01:52:18.000                             : en:12
    01:55:11.000                             : en:13




    Скриншоты:



    pb.wtf



  • Скачать Черная месса через торрент http://i73.fastpic.ru/big/2016/0116/2c/99e9fd720062fba0c61c7082fa59da2c.jpg Скачать фильм Черная месса через торрент бесплантно в хорошем качестве qw.png Картина расскажет об Уайти Балджере, знаменитом бостонском гангстере, который 16 лет находился в бегах и был арестован в июне 2011 ... 7.8 10 6
    Info! Золотая раздача, скачанное не засчитывается.
    Торрент: Зарегистрирован [2016-01-16 02:41] · скачан: 515 раз
    Статус: √ проверено
    Размер: 4.57 GB
    Как cкачать? Как скачать Черная месса через торрент | qTorrent

    28-11-2019 20:33  

    Отключить всю рекламу на сайте

      Дорогой пользователь! Огромная просьба, поблагодарите релизера, оцените раздачу и оставьте свои комментарий, если Вы скачали Черная месса через торрент бесплатно! Внесите свою лепту в развитие PiratBit!
      Комментировать посты могут только пользователи прошедшие не сложную регистрацию
      Показать сообщения:    

      Черная месса через торрент
      Скачать бесплатно Черная месса
      Черная месса скачать торрент
      Черная месса смотреть онлайн
      Cкачать фильм Черная месса бесплатно
      Черная месса скачать торрент в хорошем качестве
      Черная месса смотреть онлайн бесплатно в хорошем качестве


      Вы не можете начинать темы
      Вы не можете отвечать на сообщения
      Вы не можете редактировать свои сообщения
      Вы не можете удалять свои сообщения
      Вы не можете голосовать в опросах
      Вы не можете прикреплять файлы к сообщениям
      Вы можете скачивать файлы