Ссылка на приватное зеркало всего за 1$. Внимание количество ограничено!!!

OK

1+1

iTunes

мы

OK

1

WEB-DLRip

Джокер

Пифагор

Ведьмак / The Witcher сериал

iTunes

ПШазам

ОК

Оно 2

iTunes

30
pack

Вам бонус

ВАЖНО

!!Акция!!

Alien_RageХит недели

RePack

Resident Evil 21

ИГРА 18+

pack

RePack

jed

RePack

fifa19

RePack

Assassins Creed: Odyssey

RePack

NEED FOR SPEED™ PAYBACK

4 сезон

9 сезон

Бесстыжие 9 сезон

Все сериалы

все сериалы на PB.wtf

RePack

FAR CRY 5
  

Черная месса / Black Mass (Скотт Купер / Scott Cooper) [2015, США, Великобритания, драма, криминал, биография, WEB-DLRip, Дубляж] iTunes pb.wtf

Черная месса через торрент pb.wtf

Размер: 2.04 GB | Добавлен: 4 года назад | Торрент скачан:137 раз
Скачать  

16-01-2016 02:52 Черная месса Скачать торрент  

Черная месса / Black Mass
«Тайный сговор ФБР и одного из самых жестоких гангстеров в истории»


  • Год выпуска: 2015
  • Страна: США, Великобритания
  • Жанр: драма, криминал, биография
  • Продолжительность: 02:02:33
  • Перевод: Дубляж - [Лицензия / iTunes]

  • Режиссер: Скотт Купер / Scott Cooper
  • В ролях:

    Джонни Депп (James «Whitey» Bulger), Джоэл Эдгертон (John Connolly), Бенедикт Камбербэтч (Billy Bulger), Кевин Бейкон (Charles McGuire), Джесси Племонс (Kevin Weeks), Питер Сарсгаард (Brian Halloran), Кори Столл (Fred Wyshak), Дакота Джонсон (Lindsey Cyr), Рори Кокрейн (Steve Flemmi), Дэвид Харбор (John Morris), Адам Скотт (FBI Agent Robert Fitzpatrick), Джулианна Николсон (Marianne Connolly)


  • Картина расскажет об Уайти Балджере, знаменитом бостонском гангстере, который 16 лет находился в бегах и был арестован в июне 2011 года в Санта-Монике. Балджер, которому уже за 80, обвинялся в рэкете, был замешан в 19 убийствах и в то же время работал информатором на ФБР. Чтобы не попасть за решетку, он исчез в 1995 году и 16 лет успешно скрывался от правосудия.
  • Рейтинг:



  • Качество: WEB-DLRip
  • Формат: :AVI
  • Видео кодек: XviD
  • Аудио кодек: AC3
  • Видео: 720x304 (2.35:1), 1986 kbps, 23,976 fps, 0,379 bpp
  • Аудио: 5.1 / 48 kHz / 384 kbps / 16 bit
  • Релиз от: GEKADOL

    Код:

    General
    Complete name                            : G:\Black Mass.2O15.D.WEB-DRip.2100MB.avi
    Format                                   : AVI
    Format/Info                              : Audio Video Interleave
    Format profile                           : OpenDML
    File size                                : 2.04 GiB
    Duration                                 : 2h 2mn
    Overall bit rate                         : 2 383 Kbps
    Writing application                      : VirtualDubMod 1.5.10.2 (build 2540/release)
    Writing library                          : VirtualDubMod build 2540/release

    Video
    ID                                       : 0
    Format                                   : MPEG-4 Visual
    Format profile                           : Advanced Simple@L5
    Format settings, BVOP                    : 2
    Format settings, QPel                    : No
    Format settings, GMC                     : No warppoints
    Format settings, Matrix                  : Default (MPEG)
    Codec ID                                 : XVID
    Codec ID/Hint                            : XviD
    Duration                                 : 2h 2mn
    Bit rate                                 : 1 986 Kbps
    Width                                    : 720 pixels
    Height                                   : 304 pixels
    Display aspect ratio                     : 2.35:1
    Frame rate                               : 23.976 fps
    Color space                              : YUV
    Chroma subsampling                       : 4:2:0
    Bit depth                                : 8 bits
    Scan type                                : Progressive
    Compression mode                         : Lossy
    Bits/(Pixel*Frame)                       : 0.379
    Stream size                              : 1.70 GiB (83%)
    Writing library                          : XviD 1.2.1 (UTC 2008-12-04)

    Audio
    ID                                       : 1
    Format                                   : AC-3
    Format/Info                              : Audio Coding 3
    Mode extension                           : CM (complete main)
    Codec ID                                 : 2000
    Duration                                 : 2h 2mn
    Bit rate mode                            : Constant
    Bit rate                                 : 384 Kbps
    Channel(s)                               : 6 channels
    Channel positions                        : Front: L C R, Side: L R, LFE
    Sampling rate                            : 48.0 KHz
    Bit depth                                : 16 bits
    Compression mode                         : Lossy
    Stream size                              : 337 MiB (16%)
    Alignment                                : Split accross interleaves
    Interleave, duration                     : 42 ms (1.00 video frame)
    Interleave, preload duration             : 500 ms




    Скриншоты:



    pb.wtf



  • Скачать Черная месса через торрент http://i73.fastpic.ru/big/2016/0116/70/b0711facfcfa9f35ae3e43ecea972470.jpg Скачать фильм Черная месса через торрент бесплантно в хорошем качестве qw.png Картина расскажет об Уайти Балджере, знаменитом бостонском гангстере, который 16 лет находился в бегах и был арестован в июне 2011 ... 10 10 3
    Торрент: Зарегистрирован [2016-01-16 02:52] · скачан: 137 раз
    Статус: √ проверено
    Размер: 2.04 GB
    Как cкачать? Как скачать Черная месса через торрент | qTorrent

    % Раздел Тема Автор DL S | L
    Фильмы 2015 [DVDrip, WEB-DLRip, HDrip] [ 2.18 GB ] Черная месса / Black Mass [2015 биография BDRip-AVC] Dub potroks Скачать
    1 | 0
    Фильмы 2015 [DVDrip, WEB-DLRip, HDrip] [ 1.46 GB ] Черная месса / Black Mass [2015 биография BDRip-AVC от sokol_ok] Dub sokol_ok Скачать
    2 | 0
    Фильмы 2015 [DVDrip, WEB-DLRip, HDrip] [ 1.41 GB ] Черная месса / Black Mass [2015 биография BDRip] Dub Twi7ter Скачать
    1 | 0
    Фильмы 2015 [DVDrip, WEB-DLRip, HDrip] [ 1.45 GB ] Черная месса / Black Mass [2015 биография WEB-DLRip] - Twi7ter Скачать
    1 | 0
    R.G. Resident & PiratVoice - Фильмы, Видео [ 2.18 GB ] Черная месса / Black Mass [2015 биография WEB-DLRip-AVC ] От R.G.Resident White Smoke Скачать
    1 | 0
    Фильмы 2015 [DVDrip, WEB-DLRip, HDrip] [ 1.37 GB ] Черная месса / Black Mass [2015 биография WEB-DLRip ] GEKADOL Скачать
    1 | 0
    Фильмы (WEB-DL 720p, 1080p) [ 4.57 GB ] Черная месса / Black Mass [2015 биография WEB-DL 1080p ] + ENG + SUB GEKADOL Скачать
    1 | 0

    28-11-2019 20:33  

    Отключить всю рекламу на сайте

      Дорогой пользователь! Огромная просьба, поблагодарите релизера, оцените раздачу и оставьте свои комментарий, если Вы скачали Черная месса через торрент бесплатно! Внесите свою лепту в развитие PiratBit!
      Комментировать посты могут только пользователи прошедшие не сложную регистрацию
      Показать сообщения:    

      Черная месса через торрент
      Скачать бесплатно Черная месса
      Черная месса скачать торрент
      Черная месса смотреть онлайн
      Cкачать фильм Черная месса бесплатно
      Черная месса скачать торрент в хорошем качестве
      Черная месса смотреть онлайн бесплатно в хорошем качестве


      Вы не можете начинать темы
      Вы не можете отвечать на сообщения
      Вы не можете редактировать свои сообщения
      Вы не можете удалять свои сообщения
      Вы не можете голосовать в опросах
      Вы не можете прикреплять файлы к сообщениям
      Вы можете скачивать файлы